<?xml version="1.0" encoding="UTF-8"?>
<svg xmlns="http://www.w3.org/2000/svg" xmlns:xlink="http://www.w3.org/1999/xlink" version="1.2" >
<font id="Luciole">
<font-face  font-family="Luciole" units-per-em="1000" ascent="791" descent="-224" font-style="normal" font-weight="400" font-stretch="normal" cap-height="763" x-height="545" underline-position="-130" underline-thickness="90" />
<missing-glyph  horiz-adv-x="860" d="M770 802 L770 -235 L90 -235 L90 802 L770 802 Z M680 712 L180 712 L180 -145 L680 -145 L680 712 Z M613 466 Q613 432 598 400 Q583 368 534 313 Q479 252 462 213 Q445 174 445 131 L344 131 Q343 185 361 231.5 Q379 278 436 343 Q474 387 485 409.5 Q496 432 496 455 Q496 498 471 522 Q446 546 402 546 Q362 546 319.5 529 Q277 512 247 484 L247 595 Q281 620 325 633.5 Q369 647 414 647 Q504 647 558.5 598.5 Q613 550 613 466 Z M473 -10 Q473 -42 450 -65 Q427 -88 395 -88 Q363 -88 340 -65 Q317 -42 317 -10 Q317 22 340 45 Q363 68 395 68 Q427 68 450 45 Q473 22 473 -10 Z " />
<glyph glyph-name="NULL" horiz-adv-x="65516" d="" />
<glyph glyph-name="CR" unicode="&#xd;" horiz-adv-x="357" d="" />
<glyph glyph-name="space" unicode="&#x20;" horiz-adv-x="357" d="" />
<glyph glyph-name="thinspace" unicode="&#x2009;" horiz-adv-x="180" d="" />
<glyph glyph-name="A" unicode="A" horiz-adv-x="685" d="M208 175 L156 0 L30 0 L273 763 L414 763 L655 0 L529 0 L477 175 L208 175 Z M342 642 Q331 596 318 549 Q305 502 292 458 L241 284 L445 284 L395 459 Q381 508 367.5 557 Q354 606 345 642 L342 642 Z " />
<glyph glyph-name="Agrave" unicode="&#xc0;" horiz-adv-x="685" d="M355 823 L118 948 L194 1049 L398 894 L355 823 Z M208 175 L156 0 L30 0 L273 763 L414 763 L655 0 L529 0 L477 175 L208 175 Z M342 642 Q331 596 318 549 Q305 502 292 458 L241 284 L445 284 L395 459 Q381 508 367.5 557 Q354 606 345 642 L342 642 Z " />
<glyph glyph-name="Aacute" unicode="&#xc1;" horiz-adv-x="685" d="M555 948 L318 823 L275 894 L479 1049 L555 948 Z M208 175 L156 0 L30 0 L273 763 L414 763 L655 0 L529 0 L477 175 L208 175 Z M342 642 Q331 596 318 549 Q305 502 292 458 L241 284 L445 284 L395 459 Q381 508 367.5 557 Q354 606 345 642 L342 642 Z " />
<glyph glyph-name="Acircumflex" unicode="&#xc2;" horiz-adv-x="685" d="M342 933 L209 817 L156 882 L300 1031 L385 1031 L529 882 L476 817 L342 933 Z M208 175 L156 0 L30 0 L273 763 L414 763 L655 0 L529 0 L477 175 L208 175 Z M342 642 Q331 596 318 549 Q305 502 292 458 L241 284 L445 284 L395 459 Q381 508 367.5 557 Q354 606 345 642 L342 642 Z " />
<glyph glyph-name="Atilde" unicode="&#xc3;" horiz-adv-x="685" d="M507 998 Q514 926 491 887.5 Q468 849 419 849 Q403 849 384.5 855.5 Q366 862 331 881 Q306 895 295.5 899 Q285 903 278 903 Q264 903 258.5 889 Q253 875 256 847 L177 847 Q170 919 193.5 957.5 Q217 996 265 996 Q282 996 301.5 989.5 Q321 983 356 964 Q380 951 389.5 947.5 Q399 944 406 944 Q420 944 425.5 957.5 Q431 971 428 998 L507 998 Z M208 175 L156 0 L30 0 L273 763 L414 763 L655 0 L529 0 L477 175 L208 175 Z M342 642 Q331 596 318 549 Q305 502 292 458 L241 284 L445 284 L395 459 Q381 508 367.5 557 Q354 606 345 642 L342 642 Z " />
<glyph glyph-name="Adieresis" unicode="&#xc4;" horiz-adv-x="685" d="M545 941 Q545 908 522.5 885.5 Q500 863 467 863 Q434 863 411.5 885.5 Q389 908 389 941 Q389 974 411.5 996.5 Q434 1019 467 1019 Q500 1019 522.5 996.5 Q545 974 545 941 Z M295 941 Q295 908 272.5 885.5 Q250 863 217 863 Q184 863 161.5 885.5 Q139 908 139 941 Q139 974 161.5 996.5 Q184 1019 217 1019 Q250 1019 272.5 996.5 Q295 974 295 941 Z M208 175 L156 0 L30 0 L273 763 L414 763 L655 0 L529 0 L477 175 L208 175 Z M342 642 Q331 596 318 549 Q305 502 292 458 L241 284 L445 284 L395 459 Q381 508 367.5 557 Q354 606 345 642 L342 642 Z " />
<glyph glyph-name="Aring" unicode="&#xc5;" horiz-adv-x="685" d="M342 1044 Q415 1044 460.5 1009.5 Q506 975 506 923 Q506 871 460.5 836.5 Q415 802 342 802 Q269 802 223.5 836.5 Q178 871 178 923 Q178 975 223.5 1009.5 Q269 1044 342 1044 Z M342 969 Q308 969 288 956.5 Q268 944 268 923 Q268 902 288 889.5 Q308 877 342 877 Q375 877 395.5 889.5 Q416 902 416 923 Q416 944 395.5 956.5 Q375 969 342 969 Z M208 175 L156 0 L30 0 L273 763 L414 763 L655 0 L529 0 L477 175 L208 175 Z M342 642 Q331 596 318 549 Q305 502 292 458 L241 284 L445 284 L395 459 Q381 508 367.5 557 Q354 606 345 642 L342 642 Z " />
<glyph glyph-name="Amacron" unicode="&#x100;" horiz-adv-x="685" d="M523 975 L523 883 L161 883 L161 975 L523 975 Z M208 175 L156 0 L30 0 L273 763 L414 763 L655 0 L529 0 L477 175 L208 175 Z M342 642 Q331 596 318 549 Q305 502 292 458 L241 284 L445 284 L395 459 Q381 508 367.5 557 Q354 606 345 642 L342 642 Z " />
<glyph glyph-name="Abreve" unicode="&#x102;" horiz-adv-x="685" d="M522 1004 Q522 923 474 873 Q426 823 342 823 Q258 823 210 873 Q162 923 162 1004 L245 1004 Q247 962 272.5 937.5 Q298 913 342 913 Q386 913 411.5 937.5 Q437 962 439 1004 L522 1004 Z M208 175 L156 0 L30 0 L273 763 L414 763 L655 0 L529 0 L477 175 L208 175 Z M342 642 Q331 596 318 549 Q305 502 292 458 L241 284 L445 284 L395 459 Q381 508 367.5 557 Q354 606 345 642 L342 642 Z " />
<glyph glyph-name="Aogonek" unicode="&#x104;" horiz-adv-x="685" d="M640 -214 Q624 -224 600.5 -229.5 Q577 -235 554 -235 Q508 -235 480 -207.5 Q452 -180 452 -135 Q452 -98 470.5 -65 Q489 -32 529 0 L477 175 L208 175 L156 0 L30 0 L273 763 L414 763 L655 0 L641 0 Q603 -22 580 -53 Q557 -84 557 -113 Q557 -129 567.5 -138 Q578 -147 596 -147 Q607 -147 619 -143.5 Q631 -140 640 -134 L640 -214 Z M342 642 Q331 596 318 549 Q305 502 292 458 L241 284 L445 284 L395 459 Q381 508 367.5 557 Q354 606 345 642 L342 642 Z " />
<glyph glyph-name="Aringacute" unicode="&#x1fa;" horiz-adv-x="685" d="M484 1179 L247 1054 L204 1125 L408 1280 L484 1179 Z M344 1044 Q417 1044 462.5 1009.5 Q508 975 508 923 Q508 871 462.5 836.5 Q417 802 344 802 Q271 802 225.5 836.5 Q180 871 180 923 Q180 975 225.5 1009.5 Q271 1044 344 1044 Z M344 969 Q310 969 290 956.5 Q270 944 270 923 Q270 902 290 889.5 Q310 877 344 877 Q377 877 397.5 889.5 Q418 902 418 923 Q418 944 397.5 956.5 Q377 969 344 969 Z M208 175 L156 0 L30 0 L273 763 L414 763 L655 0 L529 0 L477 175 L208 175 Z M342 642 Q331 596 318 549 Q305 502 292 458 L241 284 L445 284 L395 459 Q381 508 367.5 557 Q354 606 345 642 L342 642 Z " />
<glyph glyph-name="AE" unicode="&#xc6;" horiz-adv-x="934" d="M30 0 L388 763 L852 763 L852 654 L572 654 L572 447 L837 447 L837 338 L572 338 L572 109 L864 109 L864 0 L451 0 L451 175 L238 175 L161 0 L30 0 Z M447 654 L285 284 L451 284 L451 654 L447 654 Z " />
<glyph glyph-name="AEacute" unicode="&#x1fc;" horiz-adv-x="934" d="M768 948 L531 823 L488 894 L692 1049 L768 948 Z M30 0 L388 763 L852 763 L852 654 L572 654 L572 447 L837 447 L837 338 L572 338 L572 109 L864 109 L864 0 L451 0 L451 175 L238 175 L161 0 L30 0 Z M447 654 L285 284 L451 284 L451 654 L447 654 Z " />
<glyph glyph-name="B" unicode="B" horiz-adv-x="663" d="M331 763 Q450 763 512 712.5 Q574 662 574 564 Q574 498 545.5 454.5 Q517 411 463 395 L463 393 Q526 387 564.5 338.5 Q603 290 603 215 Q603 112 531 56 Q459 0 324 0 L90 0 L90 763 L331 763 Z M211 444 L322 444 Q387 444 421 471 Q455 498 455 551 Q455 604 422 631.5 Q389 659 327 659 L211 659 L211 444 Z M211 104 L324 104 Q399 104 440.5 135.5 Q482 167 482 222 Q482 277 441 308.5 Q400 340 327 340 L211 340 L211 104 Z " />
<glyph glyph-name="C" unicode="C" horiz-adv-x="629" d="M171 382 Q171 251 229.5 175 Q288 99 387 99 Q434 99 486.5 116 Q539 133 579 162 L579 45 Q540 20 484 4.5 Q428 -11 373 -11 Q228 -11 139 99 Q50 209 50 381 Q50 554 141.5 664 Q233 774 382 774 Q436 774 489 760 Q542 746 574 722 L574 605 Q532 634 485 649.5 Q438 665 393 665 Q291 665 231 589.5 Q171 514 171 382 Z " />
<glyph glyph-name="Ccedilla" unicode="&#xc7;" horiz-adv-x="629" d="M439 -56 Q439 -115 402 -147 Q365 -179 304 -179 Q286 -179 270 -177 Q254 -175 240 -171 L240 -79 Q253 -83 265 -85 Q277 -87 289 -87 Q311 -87 324.5 -76 Q338 -65 338 -46 Q338 -36 334.5 -26 Q331 -16 326 -8 Q201 10 125.5 116.5 Q50 223 50 381 Q50 554 141.5 664 Q233 774 382 774 Q436 774 489 760 Q542 746 574 722 L574 605 Q532 634 485 649.5 Q438 665 393 665 Q291 665 231 589.5 Q171 514 171 382 Q171 251 229.5 175 Q288 99 387 99 Q434 99 486.5 116 Q539 133 579 162 L579 45 Q549 26 509 12 Q469 -2 426 -7 Q432 -19 435.5 -31.5 Q439 -44 439 -56 Z " />
<glyph glyph-name="Cacute" unicode="&#x106;" horiz-adv-x="629" d="M564 948 L327 823 L284 894 L488 1049 L564 948 Z M171 382 Q171 251 229.5 175 Q288 99 387 99 Q434 99 486.5 116 Q539 133 579 162 L579 45 Q540 20 484 4.5 Q428 -11 373 -11 Q228 -11 139 99 Q50 209 50 381 Q50 554 141.5 664 Q233 774 382 774 Q436 774 489 760 Q542 746 574 722 L574 605 Q532 634 485 649.5 Q438 665 393 665 Q291 665 231 589.5 Q171 514 171 382 Z " />
<glyph glyph-name="Ccircumflex" unicode="&#x108;" horiz-adv-x="629" d="M377 933 L244 817 L191 882 L335 1031 L420 1031 L564 882 L511 817 L377 933 Z M171 382 Q171 251 229.5 175 Q288 99 387 99 Q434 99 486.5 116 Q539 133 579 162 L579 45 Q540 20 484 4.5 Q428 -11 373 -11 Q228 -11 139 99 Q50 209 50 381 Q50 554 141.5 664 Q233 774 382 774 Q436 774 489 760 Q542 746 574 722 L574 605 Q532 634 485 649.5 Q438 665 393 665 Q291 665 231 589.5 Q171 514 171 382 Z " />
<glyph glyph-name="Cdotaccent" unicode="&#x10a;" horiz-adv-x="629" d="M445 941 Q445 908 422.5 885.5 Q400 863 367 863 Q334 863 311.5 885.5 Q289 908 289 941 Q289 974 311.5 996.5 Q334 1019 367 1019 Q400 1019 422.5 996.5 Q445 974 445 941 Z M171 382 Q171 251 229.5 175 Q288 99 387 99 Q434 99 486.5 116 Q539 133 579 162 L579 45 Q540 20 484 4.5 Q428 -11 373 -11 Q228 -11 139 99 Q50 209 50 381 Q50 554 141.5 664 Q233 774 382 774 Q436 774 489 760 Q542 746 574 722 L574 605 Q532 634 485 649.5 Q438 665 393 665 Q291 665 231 589.5 Q171 514 171 382 Z " />
<glyph glyph-name="Ccaron" unicode="&#x10c;" horiz-adv-x="629" d="M374 916 L507 1032 L560 967 L416 818 L331 818 L187 967 L240 1032 L374 916 Z M171 382 Q171 251 229.5 175 Q288 99 387 99 Q434 99 486.5 116 Q539 133 579 162 L579 45 Q540 20 484 4.5 Q428 -11 373 -11 Q228 -11 139 99 Q50 209 50 381 Q50 554 141.5 664 Q233 774 382 774 Q436 774 489 760 Q542 746 574 722 L574 605 Q532 634 485 649.5 Q438 665 393 665 Q291 665 231 589.5 Q171 514 171 382 Z " />
<glyph glyph-name="D" unicode="D" horiz-adv-x="724" d="M674 381 Q674 213 581 106.5 Q488 0 335 0 L90 0 L90 763 L324 763 Q484 763 579 657 Q674 551 674 381 Z M324 654 L211 654 L211 109 L335 109 Q434 109 494 185 Q554 261 554 382 Q554 505 492 579.5 Q430 654 324 654 Z " />
<glyph glyph-name="Dcaron" unicode="&#x10e;" horiz-adv-x="724" d="M337 916 L470 1032 L523 967 L379 818 L294 818 L150 967 L203 1032 L337 916 Z M674 381 Q674 213 581 106.5 Q488 0 335 0 L90 0 L90 763 L324 763 Q484 763 579 657 Q674 551 674 381 Z M324 654 L211 654 L211 109 L335 109 Q434 109 494 185 Q554 261 554 382 Q554 505 492 579.5 Q430 654 324 654 Z " />
<glyph glyph-name="Dcroat" unicode="&#x110;" horiz-adv-x="724" d="M674 381 Q674 213 581 106.5 Q488 0 335 0 L90 0 L90 342 L30 342 L30 443 L90 443 L90 763 L324 763 Q484 763 579 657 Q674 551 674 381 Z M211 109 L335 109 Q434 109 494 185 Q554 261 554 382 Q554 505 492 579.5 Q430 654 324 654 L211 654 L211 443 L366 443 L366 342 L211 342 L211 109 Z " />
<glyph glyph-name="Eth" unicode="&#xd0;" horiz-adv-x="724" d="M674 381 Q674 213 581 106.5 Q488 0 335 0 L90 0 L90 342 L30 342 L30 443 L90 443 L90 763 L324 763 Q484 763 579 657 Q674 551 674 381 Z M211 109 L335 109 Q434 109 494 185 Q554 261 554 382 Q554 505 492 579.5 Q430 654 324 654 L211 654 L211 443 L366 443 L366 342 L211 342 L211 109 Z " />
<glyph glyph-name="E" unicode="E" horiz-adv-x="573" d="M503 109 L503 0 L90 0 L90 763 L491 763 L491 654 L211 654 L211 447 L476 447 L476 338 L211 338 L211 109 L503 109 Z " />
<glyph glyph-name="Egrave" unicode="&#xc8;" horiz-adv-x="573" d="M340 823 L103 948 L179 1049 L383 894 L340 823 Z M503 109 L503 0 L90 0 L90 763 L491 763 L491 654 L211 654 L211 447 L476 447 L476 338 L211 338 L211 109 L503 109 Z " />
<glyph glyph-name="Eacute" unicode="&#xc9;" horiz-adv-x="573" d="M477 948 L240 823 L197 894 L401 1049 L477 948 Z M503 109 L503 0 L90 0 L90 763 L491 763 L491 654 L211 654 L211 447 L476 447 L476 338 L211 338 L211 109 L503 109 Z " />
<glyph glyph-name="Ecircumflex" unicode="&#xca;" horiz-adv-x="573" d="M296 933 L163 817 L110 882 L254 1031 L339 1031 L483 882 L430 817 L296 933 Z M503 109 L503 0 L90 0 L90 763 L491 763 L491 654 L211 654 L211 447 L476 447 L476 338 L211 338 L211 109 L503 109 Z " />
<glyph glyph-name="Edieresis" unicode="&#xcb;" horiz-adv-x="573" d="M499 941 Q499 908 476.5 885.5 Q454 863 421 863 Q388 863 365.5 885.5 Q343 908 343 941 Q343 974 365.5 996.5 Q388 1019 421 1019 Q454 1019 476.5 996.5 Q499 974 499 941 Z M249 941 Q249 908 226.5 885.5 Q204 863 171 863 Q138 863 115.5 885.5 Q93 908 93 941 Q93 974 115.5 996.5 Q138 1019 171 1019 Q204 1019 226.5 996.5 Q249 974 249 941 Z M503 109 L503 0 L90 0 L90 763 L491 763 L491 654 L211 654 L211 447 L476 447 L476 338 L211 338 L211 109 L503 109 Z " />
<glyph glyph-name="Emacron" unicode="&#x112;" horiz-adv-x="573" d="M477 975 L477 883 L115 883 L115 975 L477 975 Z M503 109 L503 0 L90 0 L90 763 L491 763 L491 654 L211 654 L211 447 L476 447 L476 338 L211 338 L211 109 L503 109 Z " />
<glyph glyph-name="Ebreve" unicode="&#x114;" horiz-adv-x="573" d="M476 1004 Q476 923 428 873 Q380 823 296 823 Q212 823 164 873 Q116 923 116 1004 L199 1004 Q201 962 226.5 937.5 Q252 913 296 913 Q340 913 365.5 937.5 Q391 962 393 1004 L476 1004 Z M503 109 L503 0 L90 0 L90 763 L491 763 L491 654 L211 654 L211 447 L476 447 L476 338 L211 338 L211 109 L503 109 Z " />
<glyph glyph-name="Edotaccent" unicode="&#x116;" horiz-adv-x="573" d="M374 941 Q374 908 351.5 885.5 Q329 863 296 863 Q263 863 240.5 885.5 Q218 908 218 941 Q218 974 240.5 996.5 Q263 1019 296 1019 Q329 1019 351.5 996.5 Q374 974 374 941 Z M503 109 L503 0 L90 0 L90 763 L491 763 L491 654 L211 654 L211 447 L476 447 L476 338 L211 338 L211 109 L503 109 Z " />
<glyph glyph-name="Eogonek" unicode="&#x118;" horiz-adv-x="573" d="M502 -214 Q486 -224 462.5 -229.5 Q439 -235 416 -235 Q370 -235 342 -207.5 Q314 -180 314 -135 Q314 -98 332.5 -65 Q351 -32 391 0 L90 0 L90 763 L491 763 L491 654 L211 654 L211 447 L476 447 L476 338 L211 338 L211 109 L503 109 L503 0 Q465 -22 442 -53 Q419 -84 419 -113 Q419 -129 429.5 -138 Q440 -147 458 -147 Q469 -147 481 -143.5 Q493 -140 502 -134 L502 -214 Z " />
<glyph glyph-name="Ecaron" unicode="&#x11a;" horiz-adv-x="573" d="M297 916 L430 1032 L483 967 L339 818 L254 818 L110 967 L163 1032 L297 916 Z M503 109 L503 0 L90 0 L90 763 L491 763 L491 654 L211 654 L211 447 L476 447 L476 338 L211 338 L211 109 L503 109 Z " />
<glyph glyph-name="F" unicode="F" horiz-adv-x="552" d="M90 763 L492 763 L492 654 L211 654 L211 447 L476 447 L476 338 L211 338 L211 0 L90 0 L90 763 Z " />
<glyph glyph-name="G" unicode="G" horiz-adv-x="723" d="M361 390 L633 390 L633 43 Q574 17 511.5 3 Q449 -11 393 -11 Q235 -11 142.5 93 Q50 197 50 381 Q50 566 144.5 670 Q239 774 400 774 Q453 774 508.5 762.5 Q564 751 618 728 L618 610 Q564 637 508.5 651 Q453 665 404 665 Q292 665 231 591.5 Q170 518 170 380 Q170 241 231.5 167 Q293 93 405 93 Q434 93 462.5 98 Q491 103 513 112 L513 281 L361 281 L361 390 Z " />
<glyph glyph-name="Gcircumflex" unicode="&#x11c;" horiz-adv-x="723" d="M390 933 L257 817 L204 882 L348 1031 L433 1031 L577 882 L524 817 L390 933 Z M361 390 L633 390 L633 43 Q574 17 511.5 3 Q449 -11 393 -11 Q235 -11 142.5 93 Q50 197 50 381 Q50 566 144.5 670 Q239 774 400 774 Q453 774 508.5 762.5 Q564 751 618 728 L618 610 Q564 637 508.5 651 Q453 665 404 665 Q292 665 231 591.5 Q170 518 170 380 Q170 241 231.5 167 Q293 93 405 93 Q434 93 462.5 98 Q491 103 513 112 L513 281 L361 281 L361 390 Z " />
<glyph glyph-name="Gbreve" unicode="&#x11e;" horiz-adv-x="723" d="M570 1004 Q570 923 522 873 Q474 823 390 823 Q306 823 258 873 Q210 923 210 1004 L293 1004 Q295 962 320.5 937.5 Q346 913 390 913 Q434 913 459.5 937.5 Q485 962 487 1004 L570 1004 Z M361 390 L633 390 L633 43 Q574 17 511.5 3 Q449 -11 393 -11 Q235 -11 142.5 93 Q50 197 50 381 Q50 566 144.5 670 Q239 774 400 774 Q453 774 508.5 762.5 Q564 751 618 728 L618 610 Q564 637 508.5 651 Q453 665 404 665 Q292 665 231 591.5 Q170 518 170 380 Q170 241 231.5 167 Q293 93 405 93 Q434 93 462.5 98 Q491 103 513 112 L513 281 L361 281 L361 390 Z " />
<glyph glyph-name="Gdotaccent" unicode="&#x120;" horiz-adv-x="723" d="M477 941 Q477 908 454.5 885.5 Q432 863 399 863 Q366 863 343.5 885.5 Q321 908 321 941 Q321 974 343.5 996.5 Q366 1019 399 1019 Q432 1019 454.5 996.5 Q477 974 477 941 Z M361 390 L633 390 L633 43 Q574 17 511.5 3 Q449 -11 393 -11 Q235 -11 142.5 93 Q50 197 50 381 Q50 566 144.5 670 Q239 774 400 774 Q453 774 508.5 762.5 Q564 751 618 728 L618 610 Q564 637 508.5 651 Q453 665 404 665 Q292 665 231 591.5 Q170 518 170 380 Q170 241 231.5 167 Q293 93 405 93 Q434 93 462.5 98 Q491 103 513 112 L513 281 L361 281 L361 390 Z " />
<glyph glyph-name="Gcommaaccent" unicode="&#x122;" horiz-adv-x="723" d="M361 390 L633 390 L633 43 Q574 17 511.5 3 Q449 -11 393 -11 Q235 -11 142.5 93 Q50 197 50 381 Q50 566 144.5 670 Q239 774 400 774 Q453 774 508.5 762.5 Q564 751 618 728 L618 610 Q564 637 508.5 651 Q453 665 404 665 Q292 665 231 591.5 Q170 518 170 380 Q170 241 231.5 167 Q293 93 405 93 Q434 93 462.5 98 Q491 103 513 112 L513 281 L361 281 L361 390 Z M476 -134 L322 -251 L264 -191 L379 -53 L476 -134 Z " />
<glyph glyph-name="H" unicode="H" horiz-adv-x="762" d="M211 338 L211 0 L90 0 L90 763 L211 763 L211 447 L551 447 L551 763 L672 763 L672 0 L551 0 L551 338 L211 338 Z " />
<glyph glyph-name="Hcircumflex" unicode="&#x124;" horiz-adv-x="762" d="M381 933 L248 817 L195 882 L339 1031 L424 1031 L568 882 L515 817 L381 933 Z M211 338 L211 0 L90 0 L90 763 L211 763 L211 447 L551 447 L551 763 L672 763 L672 0 L551 0 L551 338 L211 338 Z " />
<glyph glyph-name="Hbar" unicode="&#x126;" horiz-adv-x="762" d="M211 338 L211 0 L90 0 L90 545 L30 545 L30 654 L90 654 L90 763 L211 763 L211 654 L551 654 L551 763 L672 763 L672 654 L732 654 L732 545 L672 545 L672 0 L551 0 L551 338 L211 338 Z M211 447 L551 447 L551 545 L211 545 L211 447 Z " />
<glyph glyph-name="I" unicode="I" horiz-adv-x="494" d="M424 109 L424 0 L70 0 L70 109 L187 109 L187 654 L70 654 L70 763 L424 763 L424 654 L307 654 L307 109 L424 109 Z " />
<glyph glyph-name="Igrave" unicode="&#xcc;" horiz-adv-x="494" d="M272 823 L35 948 L111 1049 L315 894 L272 823 Z M424 109 L424 0 L70 0 L70 109 L187 109 L187 654 L70 654 L70 763 L424 763 L424 654 L307 654 L307 109 L424 109 Z " />
<glyph glyph-name="Iacute" unicode="&#xcd;" horiz-adv-x="494" d="M470 948 L233 823 L190 894 L394 1049 L470 948 Z M424 109 L424 0 L70 0 L70 109 L187 109 L187 654 L70 654 L70 763 L424 763 L424 654 L307 654 L307 109 L424 109 Z " />
<glyph glyph-name="Icircumflex" unicode="&#xce;" horiz-adv-x="494" d="M247 933 L114 817 L61 882 L205 1031 L290 1031 L434 882 L381 817 L247 933 Z M424 109 L424 0 L70 0 L70 109 L187 109 L187 654 L70 654 L70 763 L424 763 L424 654 L307 654 L307 109 L424 109 Z " />
<glyph glyph-name="Idieresis" unicode="&#xcf;" horiz-adv-x="494" d="M450 941 Q450 908 427.5 885.5 Q405 863 372 863 Q339 863 316.5 885.5 Q294 908 294 941 Q294 974 316.5 996.5 Q339 1019 372 1019 Q405 1019 427.5 996.5 Q450 974 450 941 Z M200 941 Q200 908 177.5 885.5 Q155 863 122 863 Q89 863 66.5 885.5 Q44 908 44 941 Q44 974 66.5 996.5 Q89 1019 122 1019 Q155 1019 177.5 996.5 Q200 974 200 941 Z M424 109 L424 0 L70 0 L70 109 L187 109 L187 654 L70 654 L70 763 L424 763 L424 654 L307 654 L307 109 L424 109 Z " />
<glyph glyph-name="Itilde" unicode="&#x128;" horiz-adv-x="494" d="M412 998 Q419 926 396 887.5 Q373 849 324 849 Q308 849 289.5 855.5 Q271 862 236 881 Q211 895 200.5 899 Q190 903 183 903 Q169 903 163.5 889 Q158 875 161 847 L82 847 Q75 919 98.5 957.5 Q122 996 170 996 Q187 996 206.5 989.5 Q226 983 261 964 Q285 951 294.5 947.5 Q304 944 311 944 Q325 944 330.5 957.5 Q336 971 333 998 L412 998 Z M424 109 L424 0 L70 0 L70 109 L187 109 L187 654 L70 654 L70 763 L424 763 L424 654 L307 654 L307 109 L424 109 Z " />
<glyph glyph-name="Imacron" unicode="&#x12a;" horiz-adv-x="494" d="M428 975 L428 883 L66 883 L66 975 L428 975 Z M424 109 L424 0 L70 0 L70 109 L187 109 L187 654 L70 654 L70 763 L424 763 L424 654 L307 654 L307 109 L424 109 Z " />
<glyph glyph-name="Ibreve" unicode="&#x12c;" horiz-adv-x="494" d="M427 1004 Q427 923 379 873 Q331 823 247 823 Q163 823 115 873 Q67 923 67 1004 L150 1004 Q152 962 177.5 937.5 Q203 913 247 913 Q291 913 316.5 937.5 Q342 962 344 1004 L427 1004 Z M424 109 L424 0 L70 0 L70 109 L187 109 L187 654 L70 654 L70 763 L424 763 L424 654 L307 654 L307 109 L424 109 Z " />
<glyph glyph-name="Iogonek" unicode="&#x12e;" horiz-adv-x="494" d="M347 -214 Q331 -224 307.5 -229.5 Q284 -235 261 -235 Q215 -235 187 -207.5 Q159 -180 159 -135 Q159 -98 177.5 -65 Q196 -32 236 0 L70 0 L70 109 L187 109 L187 654 L70 654 L70 763 L424 763 L424 654 L307 654 L307 109 L424 109 L424 0 L348 0 Q310 -22 287 -53 Q264 -84 264 -113 Q264 -129 274.5 -138 Q285 -147 303 -147 Q314 -147 326 -143.5 Q338 -140 347 -134 L347 -214 Z " />
<glyph glyph-name="Idot" unicode="&#x130;" horiz-adv-x="494" d="M325 941 Q325 908 302.5 885.5 Q280 863 247 863 Q214 863 191.5 885.5 Q169 908 169 941 Q169 974 191.5 996.5 Q214 1019 247 1019 Q280 1019 302.5 996.5 Q325 974 325 941 Z M424 109 L424 0 L70 0 L70 109 L187 109 L187 654 L70 654 L70 763 L424 763 L424 654 L307 654 L307 109 L424 109 Z " />
<glyph glyph-name="IJ" unicode="&#x132;" horiz-adv-x="988" d="M898 289 Q898 115 847 52 Q796 -11 663 -11 Q616 -11 578 -4.5 Q540 2 524 12 L524 127 Q545 115 584 107.5 Q623 100 659 100 Q707 100 733 120 Q759 140 768 186 Q773 208 775 239.5 Q777 271 777 341 L777 654 L545 654 L545 763 L898 763 L898 289 Z M424 109 L424 0 L70 0 L70 109 L187 109 L187 654 L70 654 L70 763 L424 763 L424 654 L307 654 L307 109 L424 109 Z " />
<glyph glyph-name="J" unicode="J" horiz-adv-x="524" d="M434 289 Q434 115 383 52 Q332 -11 199 -11 Q152 -11 114 -4.5 Q76 2 60 12 L60 127 Q81 115 120 107.5 Q159 100 195 100 Q243 100 269 120 Q295 140 304 186 Q309 208 311 239.5 Q313 271 313 341 L313 654 L81 654 L81 763 L434 763 L434 289 Z " />
<glyph glyph-name="Jcircumflex" unicode="&#x134;" horiz-adv-x="524" d="M255 933 L122 817 L69 882 L213 1031 L298 1031 L442 882 L389 817 L255 933 Z M434 289 Q434 115 383 52 Q332 -11 199 -11 Q152 -11 114 -4.5 Q76 2 60 12 L60 127 Q81 115 120 107.5 Q159 100 195 100 Q243 100 269 120 Q295 140 304 186 Q309 208 311 239.5 Q313 271 313 341 L313 654 L81 654 L81 763 L434 763 L434 289 Z " />
<glyph glyph-name="K" unicode="K" horiz-adv-x="640" d="M210 340 L210 0 L90 0 L90 763 L210 763 L210 445 Q244 445 263 461 Q282 477 316 526 Q329 544 347.5 571.5 Q366 599 396 644 Q410 665 437.5 706 Q465 747 475 763 L620 763 L389 447 Q382 437 375 429 Q368 421 361 415 Q350 405 341.5 399.5 Q333 394 326 394 L326 391 Q333 391 342 386 Q351 381 362 370 Q369 363 376 355 Q383 347 390 337 L630 0 L484 0 Q470 21 442 63 Q414 105 401 125 Q369 172 350 200 Q331 228 317 247 Q278 303 259 321.5 Q240 340 210 340 Z " />
<glyph glyph-name="Kcommaaccent" unicode="&#x136;" horiz-adv-x="640" d="M210 340 L210 0 L90 0 L90 763 L210 763 L210 445 Q244 445 263 461 Q282 477 316 526 Q329 544 347.5 571.5 Q366 599 396 644 Q410 665 437.5 706 Q465 747 475 763 L620 763 L389 447 Q382 437 375 429 Q368 421 361 415 Q350 405 341.5 399.5 Q333 394 326 394 L326 391 Q333 391 342 386 Q351 381 362 370 Q369 363 376 355 Q383 347 390 337 L630 0 L484 0 Q470 21 442 63 Q414 105 401 125 Q369 172 350 200 Q331 228 317 247 Q278 303 259 321.5 Q240 340 210 340 Z M405 -134 L251 -251 L193 -191 L308 -53 L405 -134 Z " />
<glyph glyph-name="L" unicode="L" horiz-adv-x="543" d="M503 109 L503 0 L90 0 L90 763 L211 763 L211 109 L503 109 Z " />
<glyph glyph-name="Lacute" unicode="&#x139;" horiz-adv-x="543" d="M366 948 L129 823 L86 894 L290 1049 L366 948 Z M503 109 L503 0 L90 0 L90 763 L211 763 L211 109 L503 109 Z " />
<glyph glyph-name="Lcommaaccent" unicode="&#x13b;" horiz-adv-x="543" d="M503 109 L503 0 L90 0 L90 763 L211 763 L211 109 L503 109 Z M402 -134 L248 -251 L190 -191 L305 -53 L402 -134 Z " />
<glyph glyph-name="Lcaron" unicode="&#x13d;" horiz-adv-x="543" d="M500 880 L406 628 L326 653 L377 905 L500 880 Z M503 109 L503 0 L90 0 L90 763 L211 763 L211 109 L503 109 Z " />
<glyph glyph-name="Ldot" unicode="&#x13f;" horiz-adv-x="543" d="M503 109 L503 0 L90 0 L90 763 L211 763 L211 109 L503 109 Z M472 478 Q472 445 449.5 422.5 Q427 400 394 400 Q361 400 338.5 422.5 Q316 445 316 478 Q316 511 338.5 533.5 Q361 556 394 556 Q427 556 449.5 533.5 Q472 511 472 478 Z " />
<glyph glyph-name="Lslash" unicode="&#x141;" horiz-adv-x="543" d="M503 109 L503 0 L90 0 L90 224 L10 168 L10 298 L90 354 L90 763 L211 763 L211 438 L442 598 L442 468 L211 308 L211 109 L503 109 Z " />
<glyph glyph-name="M" unicode="M" horiz-adv-x="926" d="M208 437 L197 0 L75 0 L111 763 L249 763 L425 253 Q436 221 445 190.5 Q454 160 461 130 L464 130 Q465 132 477.5 176.5 Q490 221 501 254 L677 763 L815 763 L851 0 L729 0 L718 437 Q717 475 718.5 512 Q720 549 723 585 L720 585 Q712 549 701 512 Q690 475 677 437 L526 0 L400 0 L249 437 Q236 475 225.5 512 Q215 549 206 585 L203 585 Q207 549 208 512 Q209 475 208 437 Z " />
<glyph glyph-name="N" unicode="N" horiz-adv-x="762" d="M211 453 L211 0 L90 0 L90 763 L211 763 L494 305 Q507 285 521.5 256 Q536 227 553 189 L557 189 Q554 227 552.5 257 Q551 287 551 310 L551 763 L672 763 L672 0 L551 0 L268 458 Q252 484 237.5 513 Q223 542 209 574 L205 574 Q208 542 209.5 512 Q211 482 211 453 Z " />
<glyph glyph-name="Ntilde" unicode="&#xd1;" horiz-adv-x="762" d="M546 998 Q553 926 530 887.5 Q507 849 458 849 Q442 849 423.5 855.5 Q405 862 370 881 Q345 895 334.5 899 Q324 903 317 903 Q303 903 297.5 889 Q292 875 295 847 L216 847 Q209 919 232.5 957.5 Q256 996 304 996 Q321 996 340.5 989.5 Q360 983 395 964 Q419 951 428.5 947.5 Q438 944 445 944 Q459 944 464.5 957.5 Q470 971 467 998 L546 998 Z M211 453 L211 0 L90 0 L90 763 L211 763 L494 305 Q507 285 521.5 256 Q536 227 553 189 L557 189 Q554 227 552.5 257 Q551 287 551 310 L551 763 L672 763 L672 0 L551 0 L268 458 Q252 484 237.5 513 Q223 542 209 574 L205 574 Q208 542 209.5 512 Q211 482 211 453 Z " />
<glyph glyph-name="Nacute" unicode="&#x143;" horiz-adv-x="762" d="M602 948 L365 823 L322 894 L526 1049 L602 948 Z M211 453 L211 0 L90 0 L90 763 L211 763 L494 305 Q507 285 521.5 256 Q536 227 553 189 L557 189 Q554 227 552.5 257 Q551 287 551 310 L551 763 L672 763 L672 0 L551 0 L268 458 Q252 484 237.5 513 Q223 542 209 574 L205 574 Q208 542 209.5 512 Q211 482 211 453 Z " />
<glyph glyph-name="Ncommaaccent" unicode="&#x145;" horiz-adv-x="762" d="M211 453 L211 0 L90 0 L90 763 L211 763 L494 305 Q507 285 521.5 256 Q536 227 553 189 L557 189 Q554 227 552.5 257 Q551 287 551 310 L551 763 L672 763 L672 0 L551 0 L268 458 Q252 484 237.5 513 Q223 542 209 574 L205 574 Q208 542 209.5 512 Q211 482 211 453 Z M487 -134 L333 -251 L275 -191 L390 -53 L487 -134 Z " />
<glyph glyph-name="Ncaron" unicode="&#x147;" horiz-adv-x="762" d="M372 916 L505 1032 L558 967 L414 818 L329 818 L185 967 L238 1032 L372 916 Z M211 453 L211 0 L90 0 L90 763 L211 763 L494 305 Q507 285 521.5 256 Q536 227 553 189 L557 189 Q554 227 552.5 257 Q551 287 551 310 L551 763 L672 763 L672 0 L551 0 L268 458 Q252 484 237.5 513 Q223 542 209 574 L205 574 Q208 542 209.5 512 Q211 482 211 453 Z " />
<glyph glyph-name="Eng" unicode="&#x14a;" horiz-adv-x="762" d="M551 763 L672 763 L672 65 Q672 -109 621 -172 Q570 -235 437 -235 Q402 -235 357 -228 Q312 -221 298 -212 L298 -97 Q320 -110 356.5 -117 Q393 -124 436 -124 Q483 -124 508 -103.5 Q533 -83 543 -37 Q545 -28 546 -18 Q547 -8 548 4 L268 458 Q252 484 237.5 513 Q223 542 209 574 L205 574 Q208 542 209.5 512 Q211 482 211 453 L211 0 L90 0 L90 763 L211 763 L494 305 Q507 285 521.5 256 Q536 227 553 189 L557 189 Q554 227 552.5 257 Q551 287 551 310 L551 763 Z " />
<glyph glyph-name="O" unicode="O" horiz-adv-x="785" d="M735 381 Q735 207 641 98 Q547 -11 392 -11 Q237 -11 143.5 98 Q50 207 50 381 Q50 556 143.5 665 Q237 774 392 774 Q547 774 641 664.5 Q735 555 735 381 Z M614 381 Q614 507 553.5 586 Q493 665 392 665 Q291 665 231 586.5 Q171 508 171 381 Q171 255 231 176.5 Q291 98 392 98 Q493 98 553.5 176.5 Q614 255 614 381 Z " />
<glyph glyph-name="Ograve" unicode="&#xd2;" horiz-adv-x="785" d="M416 823 L179 948 L255 1049 L459 894 L416 823 Z M735 381 Q735 207 641 98 Q547 -11 392 -11 Q237 -11 143.5 98 Q50 207 50 381 Q50 556 143.5 665 Q237 774 392 774 Q547 774 641 664.5 Q735 555 735 381 Z M614 381 Q614 507 553.5 586 Q493 665 392 665 Q291 665 231 586.5 Q171 508 171 381 Q171 255 231 176.5 Q291 98 392 98 Q493 98 553.5 176.5 Q614 255 614 381 Z " />
<glyph glyph-name="Oacute" unicode="&#xd3;" horiz-adv-x="785" d="M601 948 L364 823 L321 894 L525 1049 L601 948 Z M735 381 Q735 207 641 98 Q547 -11 392 -11 Q237 -11 143.5 98 Q50 207 50 381 Q50 556 143.5 665 Q237 774 392 774 Q547 774 641 664.5 Q735 555 735 381 Z M614 381 Q614 507 553.5 586 Q493 665 392 665 Q291 665 231 586.5 Q171 508 171 381 Q171 255 231 176.5 Q291 98 392 98 Q493 98 553.5 176.5 Q614 255 614 381 Z " />
<glyph glyph-name="Ocircumflex" unicode="&#xd4;" horiz-adv-x="785" d="M392 933 L259 817 L206 882 L350 1031 L435 1031 L579 882 L526 817 L392 933 Z M735 381 Q735 207 641 98 Q547 -11 392 -11 Q237 -11 143.5 98 Q50 207 50 381 Q50 556 143.5 665 Q237 774 392 774 Q547 774 641 664.5 Q735 555 735 381 Z M614 381 Q614 507 553.5 586 Q493 665 392 665 Q291 665 231 586.5 Q171 508 171 381 Q171 255 231 176.5 Q291 98 392 98 Q493 98 553.5 176.5 Q614 255 614 381 Z " />
<glyph glyph-name="Otilde" unicode="&#xd5;" horiz-adv-x="785" d="M557 998 Q564 926 541 887.5 Q518 849 469 849 Q453 849 434.5 855.5 Q416 862 381 881 Q356 895 345.5 899 Q335 903 328 903 Q314 903 308.5 889 Q303 875 306 847 L227 847 Q220 919 243.5 957.5 Q267 996 315 996 Q332 996 351.5 989.5 Q371 983 406 964 Q430 951 439.5 947.5 Q449 944 456 944 Q470 944 475.5 957.5 Q481 971 478 998 L557 998 Z M735 381 Q735 207 641 98 Q547 -11 392 -11 Q237 -11 143.5 98 Q50 207 50 381 Q50 556 143.5 665 Q237 774 392 774 Q547 774 641 664.5 Q735 555 735 381 Z M614 381 Q614 507 553.5 586 Q493 665 392 665 Q291 665 231 586.5 Q171 508 171 381 Q171 255 231 176.5 Q291 98 392 98 Q493 98 553.5 176.5 Q614 255 614 381 Z " />
<glyph glyph-name="Odieresis" unicode="&#xd6;" horiz-adv-x="785" d="M595 941 Q595 908 572.5 885.5 Q550 863 517 863 Q484 863 461.5 885.5 Q439 908 439 941 Q439 974 461.5 996.5 Q484 1019 517 1019 Q550 1019 572.5 996.5 Q595 974 595 941 Z M345 941 Q345 908 322.5 885.5 Q300 863 267 863 Q234 863 211.5 885.5 Q189 908 189 941 Q189 974 211.5 996.5 Q234 1019 267 1019 Q300 1019 322.5 996.5 Q345 974 345 941 Z M735 381 Q735 207 641 98 Q547 -11 392 -11 Q237 -11 143.5 98 Q50 207 50 381 Q50 556 143.5 665 Q237 774 392 774 Q547 774 641 664.5 Q735 555 735 381 Z M614 381 Q614 507 553.5 586 Q493 665 392 665 Q291 665 231 586.5 Q171 508 171 381 Q171 255 231 176.5 Q291 98 392 98 Q493 98 553.5 176.5 Q614 255 614 381 Z " />
<glyph glyph-name="Omacron" unicode="&#x14c;" horiz-adv-x="785" d="M573 975 L573 883 L211 883 L211 975 L573 975 Z M735 381 Q735 207 641 98 Q547 -11 392 -11 Q237 -11 143.5 98 Q50 207 50 381 Q50 556 143.5 665 Q237 774 392 774 Q547 774 641 664.5 Q735 555 735 381 Z M614 381 Q614 507 553.5 586 Q493 665 392 665 Q291 665 231 586.5 Q171 508 171 381 Q171 255 231 176.5 Q291 98 392 98 Q493 98 553.5 176.5 Q614 255 614 381 Z " />
<glyph glyph-name="Obreve" unicode="&#x14e;" horiz-adv-x="785" d="M572 1004 Q572 923 524 873 Q476 823 392 823 Q308 823 260 873 Q212 923 212 1004 L295 1004 Q297 962 322.5 937.5 Q348 913 392 913 Q436 913 461.5 937.5 Q487 962 489 1004 L572 1004 Z M735 381 Q735 207 641 98 Q547 -11 392 -11 Q237 -11 143.5 98 Q50 207 50 381 Q50 556 143.5 665 Q237 774 392 774 Q547 774 641 664.5 Q735 555 735 381 Z M614 381 Q614 507 553.5 586 Q493 665 392 665 Q291 665 231 586.5 Q171 508 171 381 Q171 255 231 176.5 Q291 98 392 98 Q493 98 553.5 176.5 Q614 255 614 381 Z " />
<glyph glyph-name="Ohungarumlaut" unicode="&#x150;" horiz-adv-x="785" d="M473 969 L257 810 L204 874 L383 1058 L473 969 Z M721 927 L479 810 L439 883 L648 1031 L721 927 Z M735 381 Q735 207 641 98 Q547 -11 392 -11 Q237 -11 143.5 98 Q50 207 50 381 Q50 556 143.5 665 Q237 774 392 774 Q547 774 641 664.5 Q735 555 735 381 Z M614 381 Q614 507 553.5 586 Q493 665 392 665 Q291 665 231 586.5 Q171 508 171 381 Q171 255 231 176.5 Q291 98 392 98 Q493 98 553.5 176.5 Q614 255 614 381 Z " />
<glyph glyph-name="Oslash" unicode="&#xd8;" horiz-adv-x="785" d="M392 -11 Q338 -11 290.5 3 Q243 17 204 43 L158 -20 L80 40 L132 111 Q93 162 71.5 230.5 Q50 299 50 381 Q50 556 143.5 665 Q237 774 392 774 Q446 774 493.5 760 Q541 746 580 719 L627 783 L705 723 L652 652 Q692 601 713.5 532 Q735 463 735 381 Q735 207 641 98 Q547 -11 392 -11 Z M171 381 Q171 332 180.5 289.5 Q190 247 207 213 L512 627 Q487 645 457 655 Q427 665 392 665 Q291 665 231 586.5 Q171 508 171 381 Z M614 381 Q614 430 604.5 472.5 Q595 515 577 549 L272 135 Q297 117 327.5 107.5 Q358 98 392 98 Q493 98 553.5 176.5 Q614 255 614 381 Z " />
<glyph glyph-name="Oslashacute" unicode="&#x1fe;" horiz-adv-x="785" d="M601 948 L364 823 L321 894 L525 1049 L601 948 Z M392 -11 Q338 -11 290.5 3 Q243 17 204 43 L158 -20 L80 40 L132 111 Q93 162 71.5 230.5 Q50 299 50 381 Q50 556 143.5 665 Q237 774 392 774 Q446 774 493.5 760 Q541 746 580 719 L627 783 L705 723 L652 652 Q692 601 713.5 532 Q735 463 735 381 Q735 207 641 98 Q547 -11 392 -11 Z M171 381 Q171 332 180.5 289.5 Q190 247 207 213 L512 627 Q487 645 457 655 Q427 665 392 665 Q291 665 231 586.5 Q171 508 171 381 Z M614 381 Q614 430 604.5 472.5 Q595 515 577 549 L272 135 Q297 117 327.5 107.5 Q358 98 392 98 Q493 98 553.5 176.5 Q614 255 614 381 Z " />
<glyph glyph-name="OE" unicode="&#x152;" horiz-adv-x="1097" d="M614 0 L614 70 Q571 31 514.5 10 Q458 -11 392 -11 Q237 -11 143.5 98 Q50 207 50 381 Q50 556 143.5 665 Q237 774 392 774 Q458 774 514.5 753 Q571 732 614 693 L614 763 L1015 763 L1015 654 L735 654 L735 447 L1000 447 L1000 338 L735 338 L735 109 L1027 109 L1027 0 L614 0 Z M614 381 Q614 507 553.5 586 Q493 665 392 665 Q291 665 231 586.5 Q171 508 171 381 Q171 255 231 176.5 Q291 98 392 98 Q493 98 553.5 176.5 Q614 255 614 381 Z " />
<glyph glyph-name="P" unicode="P" horiz-adv-x="609" d="M211 250 L211 0 L90 0 L90 763 L284 763 Q426 763 497.5 700.5 Q569 638 569 514 Q569 386 492 318 Q415 250 273 250 L211 250 Z M284 654 L211 654 L211 359 L273 359 Q363 359 405.5 396 Q448 433 448 507 Q448 580 406.5 617 Q365 654 284 654 Z " />
<glyph glyph-name="Thorn" unicode="&#xde;" horiz-adv-x="609" d="M273 136 L211 136 L211 0 L90 0 L90 763 L211 763 L211 649 L284 649 Q426 649 497.5 586.5 Q569 524 569 400 Q569 272 492 204 Q415 136 273 136 Z M284 540 L211 540 L211 245 L273 245 Q362 245 405 282 Q448 319 448 393 Q448 466 406.5 503 Q365 540 284 540 Z " />
<glyph glyph-name="Q" unicode="Q" horiz-adv-x="792" d="M762 56 L680 -21 L602 60 Q561 26 507.5 7.5 Q454 -11 392 -11 Q237 -11 143.5 98 Q50 207 50 381 Q50 556 143.5 665 Q237 774 392 774 Q547 774 641 664.5 Q735 555 735 381 Q735 310 718.5 248 Q702 186 671 138 L762 56 Z M171 381 Q171 255 231 176.5 Q291 98 392 98 Q429 98 461.5 109 Q494 120 519 141 L391 260 L469 338 L582 223 Q598 256 606 296 Q614 336 614 381 Q614 507 553.5 586 Q493 665 392 665 Q291 665 231 586.5 Q171 508 171 381 Z " />
<glyph glyph-name="R" unicode="R" horiz-adv-x="656" d="M211 292 L211 0 L90 0 L90 763 L284 763 Q424 763 496.5 706 Q569 649 569 537 Q569 461 536 407 Q503 353 440 324 L626 0 L485 0 L327 297 Q311 294 294.5 293 Q278 292 260 292 L211 292 Z M284 654 L211 654 L211 399 L273 399 Q360 399 404 431 Q448 463 448 527 Q448 589 405.5 621.5 Q363 654 284 654 Z " />
<glyph glyph-name="Racute" unicode="&#x154;" horiz-adv-x="656" d="M488 948 L251 823 L208 894 L412 1049 L488 948 Z M211 292 L211 0 L90 0 L90 763 L284 763 Q424 763 496.5 706 Q569 649 569 537 Q569 461 536 407 Q503 353 440 324 L626 0 L485 0 L327 297 Q311 294 294.5 293 Q278 292 260 292 L211 292 Z M284 654 L211 654 L211 399 L273 399 Q360 399 404 431 Q448 463 448 527 Q448 589 405.5 621.5 Q363 654 284 654 Z " />
<glyph glyph-name="Rcommaaccent" unicode="&#x156;" horiz-adv-x="656" d="M211 292 L211 0 L90 0 L90 763 L284 763 Q424 763 496.5 706 Q569 649 569 537 Q569 461 536 407 Q503 353 440 324 L626 0 L485 0 L327 297 Q311 294 294.5 293 Q278 292 260 292 L211 292 Z M284 654 L211 654 L211 399 L273 399 Q360 399 404 431 Q448 463 448 527 Q448 589 405.5 621.5 Q363 654 284 654 Z M432 -134 L278 -251 L220 -191 L335 -53 L432 -134 Z " />
<glyph glyph-name="Rcaron" unicode="&#x158;" horiz-adv-x="656" d="M299 916 L432 1032 L485 967 L341 818 L256 818 L112 967 L165 1032 L299 916 Z M211 292 L211 0 L90 0 L90 763 L284 763 Q424 763 496.5 706 Q569 649 569 537 Q569 461 536 407 Q503 353 440 324 L626 0 L485 0 L327 297 Q311 294 294.5 293 Q278 292 260 292 L211 292 Z M284 654 L211 654 L211 399 L273 399 Q360 399 404 431 Q448 463 448 527 Q448 589 405.5 621.5 Q363 654 284 654 Z " />
<glyph glyph-name="S" unicode="S" horiz-adv-x="570" d="M510 208 Q510 106 439.5 47.5 Q369 -11 244 -11 Q195 -11 149.5 -1 Q104 9 60 29 L60 149 Q101 122 149 107.5 Q197 93 246 93 Q313 93 350.5 120 Q388 147 388 195 Q388 232 362.5 262.5 Q337 293 250 340 Q193 371 166.5 389.5 Q140 408 121 428 Q92 457 78 492.5 Q64 528 64 570 Q64 664 130 719 Q196 774 308 774 Q354 774 396 764.5 Q438 755 473 737 L473 611 Q444 637 397.5 652 Q351 667 302 667 Q246 667 216 644.5 Q186 622 186 581 Q186 546 210.5 517.5 Q235 489 319 445 Q378 414 405.5 395 Q433 376 452 356 Q482 325 496 288.5 Q510 252 510 208 Z " />
<glyph glyph-name="Sacute" unicode="&#x15a;" horiz-adv-x="570" d="M498 948 L261 823 L218 894 L422 1049 L498 948 Z M510 208 Q510 106 439.5 47.5 Q369 -11 244 -11 Q195 -11 149.5 -1 Q104 9 60 29 L60 149 Q101 122 149 107.5 Q197 93 246 93 Q313 93 350.5 120 Q388 147 388 195 Q388 232 362.5 262.5 Q337 293 250 340 Q193 371 166.5 389.5 Q140 408 121 428 Q92 457 78 492.5 Q64 528 64 570 Q64 664 130 719 Q196 774 308 774 Q354 774 396 764.5 Q438 755 473 737 L473 611 Q444 637 397.5 652 Q351 667 302 667 Q246 667 216 644.5 Q186 622 186 581 Q186 546 210.5 517.5 Q235 489 319 445 Q378 414 405.5 395 Q433 376 452 356 Q482 325 496 288.5 Q510 252 510 208 Z " />
<glyph glyph-name="Scircumflex" unicode="&#x15c;" horiz-adv-x="570" d="M285 933 L152 817 L99 882 L243 1031 L328 1031 L472 882 L419 817 L285 933 Z M510 208 Q510 106 439.5 47.5 Q369 -11 244 -11 Q195 -11 149.5 -1 Q104 9 60 29 L60 149 Q101 122 149 107.5 Q197 93 246 93 Q313 93 350.5 120 Q388 147 388 195 Q388 232 362.5 262.5 Q337 293 250 340 Q193 371 166.5 389.5 Q140 408 121 428 Q92 457 78 492.5 Q64 528 64 570 Q64 664 130 719 Q196 774 308 774 Q354 774 396 764.5 Q438 755 473 737 L473 611 Q444 637 397.5 652 Q351 667 302 667 Q246 667 216 644.5 Q186 622 186 581 Q186 546 210.5 517.5 Q235 489 319 445 Q378 414 405.5 395 Q433 376 452 356 Q482 325 496 288.5 Q510 252 510 208 Z " />
<glyph glyph-name="Scedilla" unicode="&#x15e;" horiz-adv-x="570" d="M376 -56 Q376 -115 339 -147 Q302 -179 241 -179 Q223 -179 207 -177 Q191 -175 177 -171 L177 -79 Q190 -83 202 -85 Q214 -87 226 -87 Q248 -87 261.5 -76 Q275 -65 275 -46 Q275 -37 272 -27.5 Q269 -18 265 -11 Q260 -11 254.5 -11 Q249 -11 244 -11 Q195 -11 149.5 -1 Q104 9 60 29 L60 149 Q101 122 149 107.5 Q197 93 246 93 Q313 93 350.5 120 Q388 147 388 195 Q388 232 362.5 262.5 Q337 293 250 340 Q193 371 166.5 389.5 Q140 408 121 428 Q92 457 78 492.5 Q64 528 64 570 Q64 664 130 719 Q196 774 308 774 Q354 774 396 764.5 Q438 755 473 737 L473 611 Q444 637 397.5 652 Q351 667 302 667 Q246 667 216 644.5 Q186 622 186 581 Q186 546 210.5 517.5 Q235 489 319 445 Q378 414 405.5 395 Q433 376 452 356 Q482 325 496 288.5 Q510 252 510 208 Q510 131 470 78.5 Q430 26 356 4 Q366 -10 371 -25.5 Q376 -41 376 -56 Z " />
<glyph glyph-name="Scaron" unicode="&#x160;" horiz-adv-x="570" d="M286 916 L419 1032 L472 967 L328 818 L243 818 L99 967 L152 1032 L286 916 Z M510 208 Q510 106 439.5 47.5 Q369 -11 244 -11 Q195 -11 149.5 -1 Q104 9 60 29 L60 149 Q101 122 149 107.5 Q197 93 246 93 Q313 93 350.5 120 Q388 147 388 195 Q388 232 362.5 262.5 Q337 293 250 340 Q193 371 166.5 389.5 Q140 408 121 428 Q92 457 78 492.5 Q64 528 64 570 Q64 664 130 719 Q196 774 308 774 Q354 774 396 764.5 Q438 755 473 737 L473 611 Q444 637 397.5 652 Q351 667 302 667 Q246 667 216 644.5 Q186 622 186 581 Q186 546 210.5 517.5 Q235 489 319 445 Q378 414 405.5 395 Q433 376 452 356 Q482 325 496 288.5 Q510 252 510 208 Z " />
<glyph glyph-name="Scommaaccent" unicode="&#x218;" horiz-adv-x="570" d="M510 208 Q510 106 439.5 47.5 Q369 -11 244 -11 Q195 -11 149.5 -1 Q104 9 60 29 L60 149 Q101 122 149 107.5 Q197 93 246 93 Q313 93 350.5 120 Q388 147 388 195 Q388 232 362.5 262.5 Q337 293 250 340 Q193 371 166.5 389.5 Q140 408 121 428 Q92 457 78 492.5 Q64 528 64 570 Q64 664 130 719 Q196 774 308 774 Q354 774 396 764.5 Q438 755 473 737 L473 611 Q444 637 397.5 652 Q351 667 302 667 Q246 667 216 644.5 Q186 622 186 581 Q186 546 210.5 517.5 Q235 489 319 445 Q378 414 405.5 395 Q433 376 452 356 Q482 325 496 288.5 Q510 252 510 208 Z M381 -134 L227 -251 L169 -191 L284 -53 L381 -134 Z " />
<glyph glyph-name="germandbls.cap" unicode="&#xe0d1;" horiz-adv-x="1121" d="M510 208 Q510 106 439.5 47.5 Q369 -11 244 -11 Q195 -11 149.5 -1 Q104 9 60 29 L60 149 Q101 122 149 107.5 Q197 93 246 93 Q313 93 350.5 120 Q388 147 388 195 Q388 232 362.5 262.5 Q337 293 250 340 Q193 371 166.5 389.5 Q140 408 121 428 Q92 457 78 492.5 Q64 528 64 570 Q64 664 130 719 Q196 774 308 774 Q354 774 396 764.5 Q438 755 473 737 L473 611 Q444 637 397.5 652 Q351 667 302 667 Q246 667 216 644.5 Q186 622 186 581 Q186 546 210.5 517.5 Q235 489 319 445 Q378 414 405.5 395 Q433 376 452 356 Q482 325 496 288.5 Q510 252 510 208 Z M1061 208 Q1061 106 990.5 47.5 Q920 -11 795 -11 Q746 -11 700.5 -1 Q655 9 611 29 L611 149 Q652 122 700 107.5 Q748 93 797 93 Q864 93 901.5 120 Q939 147 939 195 Q939 232 913.5 262.5 Q888 293 801 340 Q744 371 717.5 389.5 Q691 408 672 428 Q643 457 629 492.5 Q615 528 615 570 Q615 664 681 719 Q747 774 859 774 Q905 774 947 764.5 Q989 755 1024 737 L1024 611 Q995 637 948.5 652 Q902 667 853 667 Q797 667 767 644.5 Q737 622 737 581 Q737 546 761.5 517.5 Q786 489 870 445 Q929 414 956.5 395 Q984 376 1003 356 Q1033 325 1047 288.5 Q1061 252 1061 208 Z " />
<glyph glyph-name="T" unicode="T" horiz-adv-x="550" d="M335 654 L335 0 L215 0 L215 654 L10 654 L10 763 L540 763 L540 654 L335 654 Z " />
<glyph glyph-name="Tcommaaccent" unicode="&#x162;" horiz-adv-x="550" d="M335 654 L335 0 L215 0 L215 654 L10 654 L10 763 L540 763 L540 654 L335 654 Z M362 -134 L208 -251 L150 -191 L265 -53 L362 -134 Z " />
<glyph glyph-name="Tcaron" unicode="&#x164;" horiz-adv-x="550" d="M276 916 L409 1032 L462 967 L318 818 L233 818 L89 967 L142 1032 L276 916 Z M335 654 L335 0 L215 0 L215 654 L10 654 L10 763 L540 763 L540 654 L335 654 Z " />
<glyph glyph-name="uni021A" unicode="&#x21a;" horiz-adv-x="550" d="M335 654 L335 0 L215 0 L215 654 L10 654 L10 763 L540 763 L540 654 L335 654 Z M362 -134 L208 -251 L150 -191 L265 -53 L362 -134 Z " />
<glyph glyph-name="Tbar" unicode="&#x166;" horiz-adv-x="550" d="M540 339 L335 339 L335 0 L215 0 L215 339 L10 339 L10 448 L215 448 L215 654 L10 654 L10 763 L540 763 L540 654 L335 654 L335 448 L540 448 L540 339 Z " />
<glyph glyph-name="U" unicode="U" horiz-adv-x="762" d="M381 -11 Q287 -11 226.5 17.5 Q166 46 134 106 Q111 149 100.5 213.5 Q90 278 90 390 L90 763 L211 763 L211 380 Q211 297 215.5 257.5 Q220 218 230 191 Q247 144 284 122 Q321 100 382 100 Q443 100 479.5 122 Q516 144 533 191 Q543 218 547 256.5 Q551 295 551 380 L551 763 L672 763 L672 390 Q672 284 661 218.5 Q650 153 626 108 Q594 47 533.5 18 Q473 -11 381 -11 Z " />
<glyph glyph-name="Ugrave" unicode="&#xd9;" horiz-adv-x="762" d="M385 823 L148 948 L224 1049 L428 894 L385 823 Z M381 -11 Q287 -11 226.5 17.5 Q166 46 134 106 Q111 149 100.5 213.5 Q90 278 90 390 L90 763 L211 763 L211 380 Q211 297 215.5 257.5 Q220 218 230 191 Q247 144 284 122 Q321 100 382 100 Q443 100 479.5 122 Q516 144 533 191 Q543 218 547 256.5 Q551 295 551 380 L551 763 L672 763 L672 390 Q672 284 661 218.5 Q650 153 626 108 Q594 47 533.5 18 Q473 -11 381 -11 Z " />
<glyph glyph-name="Uacute" unicode="&#xda;" horiz-adv-x="762" d="M601 948 L364 823 L321 894 L525 1049 L601 948 Z M381 -11 Q287 -11 226.5 17.5 Q166 46 134 106 Q111 149 100.5 213.5 Q90 278 90 390 L90 763 L211 763 L211 380 Q211 297 215.5 257.5 Q220 218 230 191 Q247 144 284 122 Q321 100 382 100 Q443 100 479.5 122 Q516 144 533 191 Q543 218 547 256.5 Q551 295 551 380 L551 763 L672 763 L672 390 Q672 284 661 218.5 Q650 153 626 108 Q594 47 533.5 18 Q473 -11 381 -11 Z " />
<glyph glyph-name="Ucircumflex" unicode="&#xdb;" horiz-adv-x="762" d="M381 933 L248 817 L195 882 L339 1031 L424 1031 L568 882 L515 817 L381 933 Z M381 -11 Q287 -11 226.5 17.5 Q166 46 134 106 Q111 149 100.5 213.5 Q90 278 90 390 L90 763 L211 763 L211 380 Q211 297 215.5 257.5 Q220 218 230 191 Q247 144 284 122 Q321 100 382 100 Q443 100 479.5 122 Q516 144 533 191 Q543 218 547 256.5 Q551 295 551 380 L551 763 L672 763 L672 390 Q672 284 661 218.5 Q650 153 626 108 Q594 47 533.5 18 Q473 -11 381 -11 Z " />
<glyph glyph-name="Udieresis" unicode="&#xdc;" horiz-adv-x="762" d="M584 941 Q584 908 561.5 885.5 Q539 863 506 863 Q473 863 450.5 885.5 Q428 908 428 941 Q428 974 450.5 996.5 Q473 1019 506 1019 Q539 1019 561.5 996.5 Q584 974 584 941 Z M334 941 Q334 908 311.5 885.5 Q289 863 256 863 Q223 863 200.5 885.5 Q178 908 178 941 Q178 974 200.5 996.5 Q223 1019 256 1019 Q289 1019 311.5 996.5 Q334 974 334 941 Z M381 -11 Q287 -11 226.5 17.5 Q166 46 134 106 Q111 149 100.5 213.5 Q90 278 90 390 L90 763 L211 763 L211 380 Q211 297 215.5 257.5 Q220 218 230 191 Q247 144 284 122 Q321 100 382 100 Q443 100 479.5 122 Q516 144 533 191 Q543 218 547 256.5 Q551 295 551 380 L551 763 L672 763 L672 390 Q672 284 661 218.5 Q650 153 626 108 Q594 47 533.5 18 Q473 -11 381 -11 Z " />
<glyph glyph-name="Utilde" unicode="&#x168;" horiz-adv-x="762" d="M546 998 Q553 926 530 887.5 Q507 849 458 849 Q442 849 423.5 855.5 Q405 862 370 881 Q345 895 334.5 899 Q324 903 317 903 Q303 903 297.5 889 Q292 875 295 847 L216 847 Q209 919 232.5 957.5 Q256 996 304 996 Q321 996 340.5 989.5 Q360 983 395 964 Q419 951 428.5 947.5 Q438 944 445 944 Q459 944 464.5 957.5 Q470 971 467 998 L546 998 Z M381 -11 Q287 -11 226.5 17.5 Q166 46 134 106 Q111 149 100.5 213.5 Q90 278 90 390 L90 763 L211 763 L211 380 Q211 297 215.5 257.5 Q220 218 230 191 Q247 144 284 122 Q321 100 382 100 Q443 100 479.5 122 Q516 144 533 191 Q543 218 547 256.5 Q551 295 551 380 L551 763 L672 763 L672 390 Q672 284 661 218.5 Q650 153 626 108 Q594 47 533.5 18 Q473 -11 381 -11 Z " />
<glyph glyph-name="Umacron" unicode="&#x16a;" horiz-adv-x="762" d="M562 975 L562 883 L200 883 L200 975 L562 975 Z M381 -11 Q287 -11 226.5 17.5 Q166 46 134 106 Q111 149 100.5 213.5 Q90 278 90 390 L90 763 L211 763 L211 380 Q211 297 215.5 257.5 Q220 218 230 191 Q247 144 284 122 Q321 100 382 100 Q443 100 479.5 122 Q516 144 533 191 Q543 218 547 256.5 Q551 295 551 380 L551 763 L672 763 L672 390 Q672 284 661 218.5 Q650 153 626 108 Q594 47 533.5 18 Q473 -11 381 -11 Z " />
<glyph glyph-name="Ubreve" unicode="&#x16c;" horiz-adv-x="762" d="M561 1004 Q561 923 513 873 Q465 823 381 823 Q297 823 249 873 Q201 923 201 1004 L284 1004 Q286 962 311.5 937.5 Q337 913 381 913 Q425 913 450.5 937.5 Q476 962 478 1004 L561 1004 Z M381 -11 Q287 -11 226.5 17.5 Q166 46 134 106 Q111 149 100.5 213.5 Q90 278 90 390 L90 763 L211 763 L211 380 Q211 297 215.5 257.5 Q220 218 230 191 Q247 144 284 122 Q321 100 382 100 Q443 100 479.5 122 Q516 144 533 191 Q543 218 547 256.5 Q551 295 551 380 L551 763 L672 763 L672 390 Q672 284 661 218.5 Q650 153 626 108 Q594 47 533.5 18 Q473 -11 381 -11 Z " />
<glyph glyph-name="Uring" unicode="&#x16e;" horiz-adv-x="762" d="M381 1044 Q454 1044 499.5 1009.5 Q545 975 545 923 Q545 871 499.5 836.5 Q454 802 381 802 Q308 802 262.5 836.5 Q217 871 217 923 Q217 975 262.5 1009.5 Q308 1044 381 1044 Z M381 969 Q347 969 327 956.5 Q307 944 307 923 Q307 902 327 889.5 Q347 877 381 877 Q414 877 434.5 889.5 Q455 902 455 923 Q455 944 434.5 956.5 Q414 969 381 969 Z M381 -11 Q287 -11 226.5 17.5 Q166 46 134 106 Q111 149 100.5 213.5 Q90 278 90 390 L90 763 L211 763 L211 380 Q211 297 215.5 257.5 Q220 218 230 191 Q247 144 284 122 Q321 100 382 100 Q443 100 479.5 122 Q516 144 533 191 Q543 218 547 256.5 Q551 295 551 380 L551 763 L672 763 L672 390 Q672 284 661 218.5 Q650 153 626 108 Q594 47 533.5 18 Q473 -11 381 -11 Z " />
<glyph glyph-name="Uhungarumlaut" unicode="&#x170;" horiz-adv-x="762" d="M456 969 L240 810 L187 874 L366 1058 L456 969 Z M704 927 L462 810 L422 883 L631 1031 L704 927 Z M381 -11 Q287 -11 226.5 17.5 Q166 46 134 106 Q111 149 100.5 213.5 Q90 278 90 390 L90 763 L211 763 L211 380 Q211 297 215.5 257.5 Q220 218 230 191 Q247 144 284 122 Q321 100 382 100 Q443 100 479.5 122 Q516 144 533 191 Q543 218 547 256.5 Q551 295 551 380 L551 763 L672 763 L672 390 Q672 284 661 218.5 Q650 153 626 108 Q594 47 533.5 18 Q473 -11 381 -11 Z " />
<glyph glyph-name="Uogonek" unicode="&#x172;" horiz-adv-x="762" d="M460 -214 Q444 -224 420.5 -229.5 Q397 -235 374 -235 Q328 -235 300 -207.5 Q272 -180 272 -135 Q272 -101 288 -70 Q304 -39 338 -9 Q262 -4 212 24.5 Q162 53 134 106 Q111 149 100.5 213.5 Q90 278 90 390 L90 763 L211 763 L211 380 Q211 297 215.5 257.5 Q220 218 230 191 Q247 144 284 122 Q321 100 382 100 Q443 100 479.5 122 Q516 144 533 191 Q543 218 547 256.5 Q551 295 551 380 L551 763 L672 763 L672 390 Q672 284 661 218.5 Q650 153 626 108 Q601 59 557.5 31 Q514 3 451 -6 Q417 -28 397 -57 Q377 -86 377 -113 Q377 -129 387.5 -138 Q398 -147 416 -147 Q427 -147 439 -143.5 Q451 -140 460 -134 L460 -214 Z " />
<glyph glyph-name="V" unicode="V" horiz-adv-x="685" d="M655 763 L415 0 L272 0 L30 763 L156 763 L342 128 L345 128 L529 763 L655 763 Z " />
<glyph glyph-name="W" unicode="W" horiz-adv-x="1015" d="M506 596 L364 0 L215 0 L50 763 L176 763 L249 390 Q257 349 264 309.5 Q271 270 282 209 Q287 183 289 170 Q291 157 293 147 L296 147 Q300 162 304 180 Q308 198 317 239 Q328 292 335.5 324.5 Q343 357 351 390 L440 763 L576 763 L667 391 Q674 363 681 332.5 Q688 302 700 246 Q709 202 713.5 182 Q718 162 722 147 L725 147 Q745 258 753.5 303.5 Q762 349 770 392 L839 763 L965 763 L800 0 L651 0 L509 596 L506 596 Z " />
<glyph glyph-name="Wcircumflex" unicode="&#x174;" horiz-adv-x="1015" d="M507 933 L374 817 L321 882 L465 1031 L550 1031 L694 882 L641 817 L507 933 Z M506 596 L364 0 L215 0 L50 763 L176 763 L249 390 Q257 349 264 309.5 Q271 270 282 209 Q287 183 289 170 Q291 157 293 147 L296 147 Q300 162 304 180 Q308 198 317 239 Q328 292 335.5 324.5 Q343 357 351 390 L440 763 L576 763 L667 391 Q674 363 681 332.5 Q688 302 700 246 Q709 202 713.5 182 Q718 162 722 147 L725 147 Q745 258 753.5 303.5 Q762 349 770 392 L839 763 L965 763 L800 0 L651 0 L509 596 L506 596 Z " />
<glyph glyph-name="Wgrave" unicode="&#x1e80;" horiz-adv-x="1015" d="M519 823 L282 948 L358 1049 L562 894 L519 823 Z M506 596 L364 0 L215 0 L50 763 L176 763 L249 390 Q257 349 264 309.5 Q271 270 282 209 Q287 183 289 170 Q291 157 293 147 L296 147 Q300 162 304 180 Q308 198 317 239 Q328 292 335.5 324.5 Q343 357 351 390 L440 763 L576 763 L667 391 Q674 363 681 332.5 Q688 302 700 246 Q709 202 713.5 182 Q718 162 722 147 L725 147 Q745 258 753.5 303.5 Q762 349 770 392 L839 763 L965 763 L800 0 L651 0 L509 596 L506 596 Z " />
<glyph glyph-name="Wacute" unicode="&#x1e82;" horiz-adv-x="1015" d="M712 948 L475 823 L432 894 L636 1049 L712 948 Z M506 596 L364 0 L215 0 L50 763 L176 763 L249 390 Q257 349 264 309.5 Q271 270 282 209 Q287 183 289 170 Q291 157 293 147 L296 147 Q300 162 304 180 Q308 198 317 239 Q328 292 335.5 324.5 Q343 357 351 390 L440 763 L576 763 L667 391 Q674 363 681 332.5 Q688 302 700 246 Q709 202 713.5 182 Q718 162 722 147 L725 147 Q745 258 753.5 303.5 Q762 349 770 392 L839 763 L965 763 L800 0 L651 0 L509 596 L506 596 Z " />
<glyph glyph-name="Wdieresis" unicode="&#x1e84;" horiz-adv-x="1015" d="M710 941 Q710 908 687.5 885.5 Q665 863 632 863 Q599 863 576.5 885.5 Q554 908 554 941 Q554 974 576.5 996.5 Q599 1019 632 1019 Q665 1019 687.5 996.5 Q710 974 710 941 Z M460 941 Q460 908 437.5 885.5 Q415 863 382 863 Q349 863 326.5 885.5 Q304 908 304 941 Q304 974 326.5 996.5 Q349 1019 382 1019 Q415 1019 437.5 996.5 Q460 974 460 941 Z M506 596 L364 0 L215 0 L50 763 L176 763 L249 390 Q257 349 264 309.5 Q271 270 282 209 Q287 183 289 170 Q291 157 293 147 L296 147 Q300 162 304 180 Q308 198 317 239 Q328 292 335.5 324.5 Q343 357 351 390 L440 763 L576 763 L667 391 Q674 363 681 332.5 Q688 302 700 246 Q709 202 713.5 182 Q718 162 722 147 L725 147 Q745 258 753.5 303.5 Q762 349 770 392 L839 763 L965 763 L800 0 L651 0 L509 596 L506 596 Z " />
<glyph glyph-name="X" unicode="X" horiz-adv-x="644" d="M316 288 L159 0 L20 0 L256 397 L31 763 L169 763 L325 492 L328 492 L474 763 L611 763 L389 381 L624 0 L484 0 L318 288 L316 288 Z " />
<glyph glyph-name="Y" unicode="Y" horiz-adv-x="625" d="M373 348 L373 0 L253 0 L253 348 L0 763 L136 763 L290 502 Q296 492 301.5 479.5 Q307 467 312 451 L315 451 Q321 466 326.5 479 Q332 492 338 502 L489 763 L625 763 L373 348 Z " />
<glyph glyph-name="Yacute" unicode="&#xdd;" horiz-adv-x="625" d="M539 948 L302 823 L259 894 L463 1049 L539 948 Z M373 348 L373 0 L253 0 L253 348 L0 763 L136 763 L290 502 Q296 492 301.5 479.5 Q307 467 312 451 L315 451 Q321 466 326.5 479 Q332 492 338 502 L489 763 L625 763 L373 348 Z " />
<glyph glyph-name="Ycircumflex" unicode="&#x176;" horiz-adv-x="625" d="M312 933 L179 817 L126 882 L270 1031 L355 1031 L499 882 L446 817 L312 933 Z M373 348 L373 0 L253 0 L253 348 L0 763 L136 763 L290 502 Q296 492 301.5 479.5 Q307 467 312 451 L315 451 Q321 466 326.5 479 Q332 492 338 502 L489 763 L625 763 L373 348 Z " />
<glyph glyph-name="Ydieresis" unicode="&#x178;" horiz-adv-x="625" d="M515 941 Q515 908 492.5 885.5 Q470 863 437 863 Q404 863 381.5 885.5 Q359 908 359 941 Q359 974 381.5 996.5 Q404 1019 437 1019 Q470 1019 492.5 996.5 Q515 974 515 941 Z M265 941 Q265 908 242.5 885.5 Q220 863 187 863 Q154 863 131.5 885.5 Q109 908 109 941 Q109 974 131.5 996.5 Q154 1019 187 1019 Q220 1019 242.5 996.5 Q265 974 265 941 Z M373 348 L373 0 L253 0 L253 348 L0 763 L136 763 L290 502 Q296 492 301.5 479.5 Q307 467 312 451 L315 451 Q321 466 326.5 479 Q332 492 338 502 L489 763 L625 763 L373 348 Z " />
<glyph glyph-name="Ygrave" unicode="&#x1ef2;" horiz-adv-x="625" d="M333 823 L96 948 L172 1049 L376 894 L333 823 Z M373 348 L373 0 L253 0 L253 348 L0 763 L136 763 L290 502 Q296 492 301.5 479.5 Q307 467 312 451 L315 451 Q321 466 326.5 479 Q332 492 338 502 L489 763 L625 763 L373 348 Z " />
<glyph glyph-name="Z" unicode="Z" horiz-adv-x="618" d="M558 109 L558 0 L60 0 L60 109 L409 651 L406 654 L70 654 L70 763 L548 763 L548 654 L199 112 L202 109 L558 109 Z " />
<glyph glyph-name="Zacute" unicode="&#x179;" horiz-adv-x="618" d="M511 948 L274 823 L231 894 L435 1049 L511 948 Z M558 109 L558 0 L60 0 L60 109 L409 651 L406 654 L70 654 L70 763 L548 763 L548 654 L199 112 L202 109 L558 109 Z " />
<glyph glyph-name="Zdotaccent" unicode="&#x17b;" horiz-adv-x="618" d="M387 941 Q387 908 364.5 885.5 Q342 863 309 863 Q276 863 253.5 885.5 Q231 908 231 941 Q231 974 253.5 996.5 Q276 1019 309 1019 Q342 1019 364.5 996.5 Q387 974 387 941 Z M558 109 L558 0 L60 0 L60 109 L409 651 L406 654 L70 654 L70 763 L548 763 L548 654 L199 112 L202 109 L558 109 Z " />
<glyph glyph-name="Zcaron" unicode="&#x17d;" horiz-adv-x="618" d="M310 916 L443 1032 L496 967 L352 818 L267 818 L123 967 L176 1032 L310 916 Z M558 109 L558 0 L60 0 L60 109 L409 651 L406 654 L70 654 L70 763 L548 763 L548 654 L199 112 L202 109 L558 109 Z " />
<glyph glyph-name="Schwa" unicode="&#x18f;" horiz-adv-x="713" d="M82 730 Q137 752 190.5 762.5 Q244 773 300 773 Q473 773 568 670.5 Q663 568 663 378 Q663 208 570 98.5 Q477 -11 327 -11 Q193 -11 121.5 70 Q50 151 50 297 Q50 332 53.5 367.5 Q57 403 65 441 L544 441 Q531 552 469 608 Q407 664 297 664 Q248 664 192 651.5 Q136 639 82 617 L82 730 Z M159 274 Q157 197 204.5 147.5 Q252 98 330 98 Q424 98 479.5 159 Q535 220 542 334 L163 334 Q161 325 160 309.5 Q159 294 159 274 Z " />
<glyph glyph-name="a" unicode="a" horiz-adv-x="566" d="M385 51 Q359 23 317.5 6 Q276 -11 229 -11 Q152 -11 106 35 Q60 81 60 156 Q60 240 121.5 285.5 Q183 331 298 331 L374 331 Q375 334 375 338 Q375 342 375 352 Q375 410 349.5 433 Q324 456 261 456 Q220 456 181.5 447 Q143 438 101 418 L101 521 Q118 529 140.5 535.5 Q163 542 190 547 Q213 552 237 554 Q261 556 284 556 Q392 556 439 504 Q486 452 486 337 L486 0 L405 0 L388 50 L385 51 Z M310 248 Q240 248 206.5 228 Q173 208 173 164 Q173 124 195 103 Q217 82 259 82 Q298 82 333.5 99 Q369 116 383 139 L383 248 L310 248 Z " />
<glyph glyph-name="agrave" unicode="&#xe0;" horiz-adv-x="566" d="M198 901 L358 707 L300 647 L97 823 L198 901 Z M385 51 Q359 23 317.5 6 Q276 -11 229 -11 Q152 -11 106 35 Q60 81 60 156 Q60 240 121.5 285.5 Q183 331 298 331 L374 331 Q375 334 375 338 Q375 342 375 352 Q375 410 349.5 433 Q324 456 261 456 Q220 456 181.5 447 Q143 438 101 418 L101 521 Q118 529 140.5 535.5 Q163 542 190 547 Q213 552 237 554 Q261 556 284 556 Q392 556 439 504 Q486 452 486 337 L486 0 L405 0 L388 50 L385 51 Z M310 248 Q240 248 206.5 228 Q173 208 173 164 Q173 124 195 103 Q217 82 259 82 Q298 82 333.5 99 Q369 116 383 139 L383 248 L310 248 Z " />
<glyph glyph-name="aacute" unicode="&#xe1;" horiz-adv-x="566" d="M473 822 L270 646 L212 706 L376 903 L473 822 Z M385 51 Q359 23 317.5 6 Q276 -11 229 -11 Q152 -11 106 35 Q60 81 60 156 Q60 240 121.5 285.5 Q183 331 298 331 L374 331 Q375 334 375 338 Q375 342 375 352 Q375 410 349.5 433 Q324 456 261 456 Q220 456 181.5 447 Q143 438 101 418 L101 521 Q118 529 140.5 535.5 Q163 542 190 547 Q213 552 237 554 Q261 556 284 556 Q392 556 439 504 Q486 452 486 337 L486 0 L405 0 L388 50 L385 51 Z M310 248 Q240 248 206.5 228 Q173 208 173 164 Q173 124 195 103 Q217 82 259 82 Q298 82 333.5 99 Q369 116 383 139 L383 248 L310 248 Z " />
<glyph glyph-name="acircumflex" unicode="&#xe2;" horiz-adv-x="566" d="M273 756 L172 637 L110 688 L231 863 L316 863 L437 688 L375 637 L273 756 Z M385 51 Q359 23 317.5 6 Q276 -11 229 -11 Q152 -11 106 35 Q60 81 60 156 Q60 240 121.5 285.5 Q183 331 298 331 L374 331 Q375 334 375 338 Q375 342 375 352 Q375 410 349.5 433 Q324 456 261 456 Q220 456 181.5 447 Q143 438 101 418 L101 521 Q118 529 140.5 535.5 Q163 542 190 547 Q213 552 237 554 Q261 556 284 556 Q392 556 439 504 Q486 452 486 337 L486 0 L405 0 L388 50 L385 51 Z M310 248 Q240 248 206.5 228 Q173 208 173 164 Q173 124 195 103 Q217 82 259 82 Q298 82 333.5 99 Q369 116 383 139 L383 248 L310 248 Z " />
<glyph glyph-name="atilde" unicode="&#xe3;" horiz-adv-x="566" d="M437 839 Q438 752 411 706 Q384 660 336 663 Q316 665 297.5 675 Q279 685 254 712 Q239 728 232.5 733 Q226 738 220 738 Q206 739 198.5 720.5 Q191 702 191 665 L109 665 Q108 750 135 796 Q162 842 210 839 Q232 837 250.5 827 Q269 817 294 789 Q308 774 314 769.5 Q320 765 326 765 Q340 764 347.5 783 Q355 802 355 839 L437 839 Z M385 51 Q359 23 317.5 6 Q276 -11 229 -11 Q152 -11 106 35 Q60 81 60 156 Q60 240 121.5 285.5 Q183 331 298 331 L374 331 Q375 334 375 338 Q375 342 375 352 Q375 410 349.5 433 Q324 456 261 456 Q220 456 181.5 447 Q143 438 101 418 L101 521 Q118 529 140.5 535.5 Q163 542 190 547 Q213 552 237 554 Q261 556 284 556 Q392 556 439 504 Q486 452 486 337 L486 0 L405 0 L388 50 L385 51 Z M310 248 Q240 248 206.5 228 Q173 208 173 164 Q173 124 195 103 Q217 82 259 82 Q298 82 333.5 99 Q369 116 383 139 L383 248 L310 248 Z " />
<glyph glyph-name="adieresis" unicode="&#xe4;" horiz-adv-x="566" d="M383 852 Q416 852 438.5 829.5 Q461 807 461 774 Q461 741 438.5 718.5 Q416 696 383 696 Q350 696 327.5 718.5 Q305 741 305 774 Q305 807 327.5 829.5 Q350 852 383 852 Z M163 852 Q196 852 218.5 829.5 Q241 807 241 774 Q241 741 218.5 718.5 Q196 696 163 696 Q130 696 107.5 718.5 Q85 741 85 774 Q85 807 107.5 829.5 Q130 852 163 852 Z M385 51 Q359 23 317.5 6 Q276 -11 229 -11 Q152 -11 106 35 Q60 81 60 156 Q60 240 121.5 285.5 Q183 331 298 331 L374 331 Q375 334 375 338 Q375 342 375 352 Q375 410 349.5 433 Q324 456 261 456 Q220 456 181.5 447 Q143 438 101 418 L101 521 Q118 529 140.5 535.5 Q163 542 190 547 Q213 552 237 554 Q261 556 284 556 Q392 556 439 504 Q486 452 486 337 L486 0 L405 0 L388 50 L385 51 Z M310 248 Q240 248 206.5 228 Q173 208 173 164 Q173 124 195 103 Q217 82 259 82 Q298 82 333.5 99 Q369 116 383 139 L383 248 L310 248 Z " />
<glyph glyph-name="aring" unicode="&#xe5;" horiz-adv-x="566" d="M273 903 Q326 903 364 865 Q402 827 402 774 Q402 721 364 683 Q326 645 273 645 Q220 645 182 683 Q144 721 144 774 Q144 827 182 865 Q220 903 273 903 Z M273 829 Q248 829 233 814.5 Q218 800 218 774 Q218 749 233 734 Q248 719 273 719 Q298 719 313 734 Q328 749 328 774 Q328 799 313 814 Q298 829 273 829 Z M385 51 Q359 23 317.5 6 Q276 -11 229 -11 Q152 -11 106 35 Q60 81 60 156 Q60 240 121.5 285.5 Q183 331 298 331 L374 331 Q375 334 375 338 Q375 342 375 352 Q375 410 349.5 433 Q324 456 261 456 Q220 456 181.5 447 Q143 438 101 418 L101 521 Q118 529 140.5 535.5 Q163 542 190 547 Q213 552 237 554 Q261 556 284 556 Q392 556 439 504 Q486 452 486 337 L486 0 L405 0 L388 50 L385 51 Z M310 248 Q240 248 206.5 228 Q173 208 173 164 Q173 124 195 103 Q217 82 259 82 Q298 82 333.5 99 Q369 116 383 139 L383 248 L310 248 Z " />
<glyph glyph-name="amacron" unicode="&#x101;" horiz-adv-x="566" d="M434 791 L434 699 L112 699 L112 791 L434 791 Z M385 51 Q359 23 317.5 6 Q276 -11 229 -11 Q152 -11 106 35 Q60 81 60 156 Q60 240 121.5 285.5 Q183 331 298 331 L374 331 Q375 334 375 338 Q375 342 375 352 Q375 410 349.5 433 Q324 456 261 456 Q220 456 181.5 447 Q143 438 101 418 L101 521 Q118 529 140.5 535.5 Q163 542 190 547 Q213 552 237 554 Q261 556 284 556 Q392 556 439 504 Q486 452 486 337 L486 0 L405 0 L388 50 L385 51 Z M310 248 Q240 248 206.5 228 Q173 208 173 164 Q173 124 195 103 Q217 82 259 82 Q298 82 333.5 99 Q369 116 383 139 L383 248 L310 248 Z " />
<glyph glyph-name="abreve" unicode="&#x103;" horiz-adv-x="566" d="M433 832 Q433 751 390 701 Q347 651 273 651 Q199 651 156 701 Q113 751 113 832 L196 832 Q198 789 218 765 Q238 741 273 741 Q308 741 328 765 Q348 789 350 832 L433 832 Z M385 51 Q359 23 317.5 6 Q276 -11 229 -11 Q152 -11 106 35 Q60 81 60 156 Q60 240 121.5 285.5 Q183 331 298 331 L374 331 Q375 334 375 338 Q375 342 375 352 Q375 410 349.5 433 Q324 456 261 456 Q220 456 181.5 447 Q143 438 101 418 L101 521 Q118 529 140.5 535.5 Q163 542 190 547 Q213 552 237 554 Q261 556 284 556 Q392 556 439 504 Q486 452 486 337 L486 0 L405 0 L388 50 L385 51 Z M310 248 Q240 248 206.5 228 Q173 208 173 164 Q173 124 195 103 Q217 82 259 82 Q298 82 333.5 99 Q369 116 383 139 L383 248 L310 248 Z " />
<glyph glyph-name="aogonek" unicode="&#x105;" horiz-adv-x="566" d="M485 -214 Q469 -224 445.5 -229.5 Q422 -235 399 -235 Q353 -235 325 -207.5 Q297 -180 297 -135 Q297 -98 315.5 -65 Q334 -32 374 0 Q379 5 385 9.5 Q391 14 399 18 L388 50 L385 51 Q359 23 317.5 6 Q276 -11 229 -11 Q152 -11 106 35 Q60 81 60 156 Q60 240 121.5 285.5 Q183 331 298 331 L374 331 Q375 334 375 338 Q375 342 375 352 Q375 410 349.5 433 Q324 456 261 456 Q220 456 181.5 447 Q143 438 101 418 L101 521 Q118 529 140.5 535.5 Q163 542 190 547 Q213 552 237 554 Q261 556 284 556 Q392 556 439 504 Q486 452 486 337 L486 0 Q448 -22 425 -53 Q402 -84 402 -113 Q402 -129 412.5 -138 Q423 -147 441 -147 Q452 -147 464 -143.5 Q476 -140 485 -134 L485 -214 Z M310 248 Q240 248 206.5 228 Q173 208 173 164 Q173 124 195 103 Q217 82 259 82 Q298 82 333.5 99 Q369 116 383 139 L383 248 L310 248 Z " />
<glyph glyph-name="aringacute" unicode="&#x1fb;" horiz-adv-x="566" d="M436 1022 L199 897 L156 968 L360 1123 L436 1022 Z M296 869 Q349 869 387 831 Q425 793 425 740 Q425 687 387 649 Q349 611 296 611 Q243 611 205 649 Q167 687 167 740 Q167 793 205 831 Q243 869 296 869 Z M296 795 Q271 795 256 780.5 Q241 766 241 740 Q241 715 256 700 Q271 685 296 685 Q321 685 336 700 Q351 715 351 740 Q351 765 336 780 Q321 795 296 795 Z M385 51 Q359 23 317.5 6 Q276 -11 229 -11 Q152 -11 106 35 Q60 81 60 156 Q60 240 121.5 285.5 Q183 331 298 331 L374 331 Q375 334 375 338 Q375 342 375 352 Q375 410 349.5 433 Q324 456 261 456 Q220 456 181.5 447 Q143 438 101 418 L101 521 Q118 529 140.5 535.5 Q163 542 190 547 Q213 552 237 554 Q261 556 284 556 Q392 556 439 504 Q486 452 486 337 L486 0 L405 0 L388 50 L385 51 Z M310 248 Q240 248 206.5 228 Q173 208 173 164 Q173 124 195 103 Q217 82 259 82 Q298 82 333.5 99 Q369 116 383 139 L383 248 L310 248 Z " />
<glyph glyph-name="ae" unicode="&#xe6;" horiz-adv-x="880" d="M807 20 Q764 4 723.5 -3.5 Q683 -11 641 -11 Q572 -11 519 11.5 Q466 34 431 76 Q395 35 342.5 12 Q290 -11 232 -11 Q153 -11 106.5 35.5 Q60 82 60 159 Q60 239 121.5 283 Q183 327 298 327 L374 327 Q375 330 375 335 Q375 340 375 352 Q375 406 350.5 430.5 Q326 455 272 455 Q225 455 184.5 446 Q144 437 101 417 L101 521 Q118 529 140 535.5 Q162 542 189 547 Q212 551 235.5 553.5 Q259 556 282 556 Q343 556 384 539 Q425 522 448 486 Q480 519 524 537.5 Q568 556 621 556 Q721 556 775.5 499 Q830 442 830 340 Q830 315 827 289 Q824 263 818 237 L480 237 Q491 162 532 125.5 Q573 89 648 89 Q684 89 724 97.5 Q764 106 807 123 L807 20 Z M727 355 Q727 405 697 435.5 Q667 466 618 466 Q559 466 524.5 431 Q490 396 482 327 L725 327 Q726 330 726.5 336 Q727 342 727 355 Z M173 161 Q173 126 194.5 106 Q216 86 255 86 Q297 86 332.5 103 Q368 120 391 149 Q384 169 379.5 191 Q375 213 373 237 L310 237 Q239 237 206 219.5 Q173 202 173 161 Z " />
<glyph glyph-name="aeacute" unicode="&#x1fd;" horiz-adv-x="880" d="M644 822 L441 646 L383 706 L547 903 L644 822 Z M807 20 Q764 4 723.5 -3.5 Q683 -11 641 -11 Q572 -11 519 11.5 Q466 34 431 76 Q395 35 342.5 12 Q290 -11 232 -11 Q153 -11 106.5 35.5 Q60 82 60 159 Q60 239 121.5 283 Q183 327 298 327 L374 327 Q375 330 375 335 Q375 340 375 352 Q375 406 350.5 430.5 Q326 455 272 455 Q225 455 184.5 446 Q144 437 101 417 L101 521 Q118 529 140 535.5 Q162 542 189 547 Q212 551 235.5 553.5 Q259 556 282 556 Q343 556 384 539 Q425 522 448 486 Q480 519 524 537.5 Q568 556 621 556 Q721 556 775.5 499 Q830 442 830 340 Q830 315 827 289 Q824 263 818 237 L480 237 Q491 162 532 125.5 Q573 89 648 89 Q684 89 724 97.5 Q764 106 807 123 L807 20 Z M727 355 Q727 405 697 435.5 Q667 466 618 466 Q559 466 524.5 431 Q490 396 482 327 L725 327 Q726 330 726.5 336 Q727 342 727 355 Z M173 161 Q173 126 194.5 106 Q216 86 255 86 Q297 86 332.5 103 Q368 120 391 149 Q384 169 379.5 191 Q375 213 373 237 L310 237 Q239 237 206 219.5 Q173 202 173 161 Z " />
<glyph glyph-name="b" unicode="b" horiz-adv-x="602" d="M552 280 Q552 148 482 68.5 Q412 -11 294 -11 Q255 -11 215.5 -1.5 Q176 8 90 44 L90 791 L203 791 L203 505 L206 502 Q230 527 266.5 541.5 Q303 556 343 556 Q436 556 494 478.5 Q552 401 552 280 Z M203 113 Q223 102 248.5 96 Q274 90 298 90 Q364 90 401.5 141 Q439 192 439 277 Q439 358 404 406.5 Q369 455 309 455 Q276 455 246.5 440 Q217 425 203 401 L203 113 Z " />
<glyph glyph-name="c" unicode="c" horiz-adv-x="494" d="M444 26 Q418 9 377.5 -1 Q337 -11 296 -11 Q182 -11 116 66 Q50 143 50 272 Q50 401 116.5 478.5 Q183 556 297 556 Q338 556 378 546.5 Q418 537 441 522 L441 414 Q423 432 384.5 443.5 Q346 455 306 455 Q233 455 198 411 Q163 367 163 277 Q163 183 198 136.5 Q233 90 304 90 Q341 90 381.5 102 Q422 114 444 131 L444 26 Z " />
<glyph glyph-name="ccedilla" unicode="&#xe7;" horiz-adv-x="494" d="M347 -56 Q347 -115 310 -147 Q273 -179 212 -179 Q194 -179 178 -177 Q162 -175 148 -171 L148 -79 Q161 -83 173 -85 Q185 -87 197 -87 Q219 -87 232.5 -76 Q246 -65 246 -46 Q246 -35 242 -23.5 Q238 -12 231 -4 Q146 17 98 89.5 Q50 162 50 272 Q50 401 116.5 478.5 Q183 556 297 556 Q338 556 378 546.5 Q418 537 441 522 L441 414 Q423 432 384.5 443.5 Q346 455 306 455 Q233 455 198 411 Q163 367 163 277 Q163 183 198 136.5 Q233 90 304 90 Q341 90 381.5 102 Q422 114 444 131 L444 26 Q424 13 395 4 Q366 -5 335 -9 Q341 -20 344 -32 Q347 -44 347 -56 Z " />
<glyph glyph-name="cacute" unicode="&#x107;" horiz-adv-x="494" d="M486 822 L283 646 L225 706 L389 903 L486 822 Z M444 26 Q418 9 377.5 -1 Q337 -11 296 -11 Q182 -11 116 66 Q50 143 50 272 Q50 401 116.5 478.5 Q183 556 297 556 Q338 556 378 546.5 Q418 537 441 522 L441 414 Q423 432 384.5 443.5 Q346 455 306 455 Q233 455 198 411 Q163 367 163 277 Q163 183 198 136.5 Q233 90 304 90 Q341 90 381.5 102 Q422 114 444 131 L444 26 Z " />
<glyph glyph-name="ccircumflex" unicode="&#x109;" horiz-adv-x="494" d="M286 756 L185 637 L123 688 L244 863 L329 863 L450 688 L388 637 L286 756 Z M444 26 Q418 9 377.5 -1 Q337 -11 296 -11 Q182 -11 116 66 Q50 143 50 272 Q50 401 116.5 478.5 Q183 556 297 556 Q338 556 378 546.5 Q418 537 441 522 L441 414 Q423 432 384.5 443.5 Q346 455 306 455 Q233 455 198 411 Q163 367 163 277 Q163 183 198 136.5 Q233 90 304 90 Q341 90 381.5 102 Q422 114 444 131 L444 26 Z " />
<glyph glyph-name="cdotaccent" unicode="&#x10b;" horiz-adv-x="494" d="M369 751 Q369 718 346.5 695.5 Q324 673 291 673 Q258 673 235.5 695.5 Q213 718 213 751 Q213 784 235.5 806.5 Q258 829 291 829 Q324 829 346.5 806.5 Q369 784 369 751 Z M444 26 Q418 9 377.5 -1 Q337 -11 296 -11 Q182 -11 116 66 Q50 143 50 272 Q50 401 116.5 478.5 Q183 556 297 556 Q338 556 378 546.5 Q418 537 441 522 L441 414 Q423 432 384.5 443.5 Q346 455 306 455 Q233 455 198 411 Q163 367 163 277 Q163 183 198 136.5 Q233 90 304 90 Q341 90 381.5 102 Q422 114 444 131 L444 26 Z " />
<glyph glyph-name="ccaron" unicode="&#x10d;" horiz-adv-x="494" d="M273 748 L374 867 L436 816 L315 641 L230 641 L109 816 L171 867 L273 748 Z M444 26 Q418 9 377.5 -1 Q337 -11 296 -11 Q182 -11 116 66 Q50 143 50 272 Q50 401 116.5 478.5 Q183 556 297 556 Q338 556 378 546.5 Q418 537 441 522 L441 414 Q423 432 384.5 443.5 Q346 455 306 455 Q233 455 198 411 Q163 367 163 277 Q163 183 198 136.5 Q233 90 304 90 Q341 90 381.5 102 Q422 114 444 131 L444 26 Z " />
<glyph glyph-name="d" unicode="d" horiz-adv-x="602" d="M396 42 Q372 17 336.5 3 Q301 -11 262 -11 Q168 -11 109 67 Q50 145 50 267 Q50 396 116.5 476 Q183 556 294 556 Q329 556 354.5 550 Q380 544 396 531 L399 534 L399 791 L512 791 L512 0 L399 0 L399 39 L396 42 Z M399 429 Q384 441 360 448 Q336 455 310 455 Q241 455 202 406.5 Q163 358 163 271 Q163 187 198 137.5 Q233 88 293 88 Q327 88 356 104 Q385 120 399 145 L399 429 Z " />
<glyph glyph-name="dcaron" unicode="&#x10f;" horiz-adv-x="602" d="M741 880 L647 628 L567 653 L618 905 L741 880 Z M396 42 Q372 17 336.5 3 Q301 -11 262 -11 Q168 -11 109 67 Q50 145 50 267 Q50 396 116.5 476 Q183 556 294 556 Q329 556 354.5 550 Q380 544 396 531 L399 534 L399 791 L512 791 L512 0 L399 0 L399 39 L396 42 Z M399 429 Q384 441 360 448 Q336 455 310 455 Q241 455 202 406.5 Q163 358 163 271 Q163 187 198 137.5 Q233 88 293 88 Q327 88 356 104 Q385 120 399 145 L399 429 Z " />
<glyph glyph-name="dslash" unicode="&#x111;" horiz-adv-x="602" d="M396 42 Q372 17 336.5 3 Q301 -11 262 -11 Q168 -11 109 67 Q50 145 50 267 Q50 396 116.5 476 Q183 556 294 556 Q329 556 354.5 550 Q380 544 396 531 L399 534 L399 614 L219 614 L219 710 L399 710 L399 791 L512 791 L512 710 L582 710 L582 614 L512 614 L512 0 L399 0 L399 39 L396 42 Z M399 429 Q384 441 360 448 Q336 455 310 455 Q241 455 202 406.5 Q163 358 163 271 Q163 187 198 137.5 Q233 88 293 88 Q327 88 356 104 Q385 120 399 145 L399 429 Z " />
<glyph glyph-name="eth" unicode="&#xf0;" horiz-adv-x="592" d="M542 295 Q542 157 473.5 73 Q405 -11 287 -11 Q176 -11 113 62 Q50 135 50 258 Q50 378 109.5 451.5 Q169 525 270 525 Q300 525 329.5 518 Q359 511 387 498 Q367 534 339.5 567 Q312 600 277 629 L170 549 L118 612 L210 677 Q187 692 161 705.5 Q135 719 107 731 L176 807 Q208 792 238 775 Q268 758 295 739 L388 814 L444 749 L359 688 Q446 610 494 508.5 Q542 407 542 295 Z M164 262 Q164 180 198 135.5 Q232 91 295 91 Q359 91 393.5 136 Q428 181 428 262 Q428 347 395 390.5 Q362 434 298 434 Q233 434 198.5 389.5 Q164 345 164 262 Z " />
<glyph glyph-name="e" unicode="e" horiz-adv-x="559" d="M486 20 Q444 4 404 -3.5 Q364 -11 324 -11 Q195 -11 122.5 62.5 Q50 136 50 269 Q50 400 118 478 Q186 556 302 556 Q401 556 455 496.5 Q509 437 509 331 Q509 307 506 281 Q503 255 497 229 L159 229 Q169 158 210 123 Q251 88 325 88 Q362 88 402.5 96.5 Q443 105 486 122 L486 20 Z M407 352 Q408 404 377.5 435.5 Q347 467 293 467 Q234 467 199 428 Q164 389 159 317 L404 317 Q405 325 406 334.5 Q407 344 407 352 Z " />
<glyph glyph-name="egrave" unicode="&#xe8;" horiz-adv-x="559" d="M220 901 L380 707 L322 647 L119 823 L220 901 Z M486 20 Q444 4 404 -3.5 Q364 -11 324 -11 Q195 -11 122.5 62.5 Q50 136 50 269 Q50 400 118 478 Q186 556 302 556 Q401 556 455 496.5 Q509 437 509 331 Q509 307 506 281 Q503 255 497 229 L159 229 Q169 158 210 123 Q251 88 325 88 Q362 88 402.5 96.5 Q443 105 486 122 L486 20 Z M407 352 Q408 404 377.5 435.5 Q347 467 293 467 Q234 467 199 428 Q164 389 159 317 L404 317 Q405 325 406 334.5 Q407 344 407 352 Z " />
<glyph glyph-name="eacute" unicode="&#xe9;" horiz-adv-x="559" d="M477 822 L274 646 L216 706 L380 903 L477 822 Z M486 20 Q444 4 404 -3.5 Q364 -11 324 -11 Q195 -11 122.5 62.5 Q50 136 50 269 Q50 400 118 478 Q186 556 302 556 Q401 556 455 496.5 Q509 437 509 331 Q509 307 506 281 Q503 255 497 229 L159 229 Q169 158 210 123 Q251 88 325 88 Q362 88 402.5 96.5 Q443 105 486 122 L486 20 Z M407 352 Q408 404 377.5 435.5 Q347 467 293 467 Q234 467 199 428 Q164 389 159 317 L404 317 Q405 325 406 334.5 Q407 344 407 352 Z " />
<glyph glyph-name="ecircumflex" unicode="&#xea;" horiz-adv-x="559" d="M289 756 L188 637 L126 688 L247 863 L332 863 L453 688 L391 637 L289 756 Z M486 20 Q444 4 404 -3.5 Q364 -11 324 -11 Q195 -11 122.5 62.5 Q50 136 50 269 Q50 400 118 478 Q186 556 302 556 Q401 556 455 496.5 Q509 437 509 331 Q509 307 506 281 Q503 255 497 229 L159 229 Q169 158 210 123 Q251 88 325 88 Q362 88 402.5 96.5 Q443 105 486 122 L486 20 Z M407 352 Q408 404 377.5 435.5 Q347 467 293 467 Q234 467 199 428 Q164 389 159 317 L404 317 Q405 325 406 334.5 Q407 344 407 352 Z " />
<glyph glyph-name="edieresis" unicode="&#xeb;" horiz-adv-x="559" d="M389 852 Q422 852 444.5 829.5 Q467 807 467 774 Q467 741 444.5 718.5 Q422 696 389 696 Q356 696 333.5 718.5 Q311 741 311 774 Q311 807 333.5 829.5 Q356 852 389 852 Z M169 852 Q202 852 224.5 829.5 Q247 807 247 774 Q247 741 224.5 718.5 Q202 696 169 696 Q136 696 113.5 718.5 Q91 741 91 774 Q91 807 113.5 829.5 Q136 852 169 852 Z M486 20 Q444 4 404 -3.5 Q364 -11 324 -11 Q195 -11 122.5 62.5 Q50 136 50 269 Q50 400 118 478 Q186 556 302 556 Q401 556 455 496.5 Q509 437 509 331 Q509 307 506 281 Q503 255 497 229 L159 229 Q169 158 210 123 Q251 88 325 88 Q362 88 402.5 96.5 Q443 105 486 122 L486 20 Z M407 352 Q408 404 377.5 435.5 Q347 467 293 467 Q234 467 199 428 Q164 389 159 317 L404 317 Q405 325 406 334.5 Q407 344 407 352 Z " />
<glyph glyph-name="emacron" unicode="&#x113;" horiz-adv-x="559" d="M452 791 L452 699 L130 699 L130 791 L452 791 Z M486 20 Q444 4 404 -3.5 Q364 -11 324 -11 Q195 -11 122.5 62.5 Q50 136 50 269 Q50 400 118 478 Q186 556 302 556 Q401 556 455 496.5 Q509 437 509 331 Q509 307 506 281 Q503 255 497 229 L159 229 Q169 158 210 123 Q251 88 325 88 Q362 88 402.5 96.5 Q443 105 486 122 L486 20 Z M407 352 Q408 404 377.5 435.5 Q347 467 293 467 Q234 467 199 428 Q164 389 159 317 L404 317 Q405 325 406 334.5 Q407 344 407 352 Z " />
<glyph glyph-name="ebreve" unicode="&#x115;" horiz-adv-x="559" d="M439 832 Q439 751 396 701 Q353 651 279 651 Q205 651 162 701 Q119 751 119 832 L202 832 Q204 789 224 765 Q244 741 279 741 Q314 741 334 765 Q354 789 356 832 L439 832 Z M486 20 Q444 4 404 -3.5 Q364 -11 324 -11 Q195 -11 122.5 62.5 Q50 136 50 269 Q50 400 118 478 Q186 556 302 556 Q401 556 455 496.5 Q509 437 509 331 Q509 307 506 281 Q503 255 497 229 L159 229 Q169 158 210 123 Q251 88 325 88 Q362 88 402.5 96.5 Q443 105 486 122 L486 20 Z M407 352 Q408 404 377.5 435.5 Q347 467 293 467 Q234 467 199 428 Q164 389 159 317 L404 317 Q405 325 406 334.5 Q407 344 407 352 Z " />
<glyph glyph-name="edotaccent" unicode="&#x117;" horiz-adv-x="559" d="M368 751 Q368 718 345.5 695.5 Q323 673 290 673 Q257 673 234.5 695.5 Q212 718 212 751 Q212 784 234.5 806.5 Q257 829 290 829 Q323 829 345.5 806.5 Q368 784 368 751 Z M486 20 Q444 4 404 -3.5 Q364 -11 324 -11 Q195 -11 122.5 62.5 Q50 136 50 269 Q50 400 118 478 Q186 556 302 556 Q401 556 455 496.5 Q509 437 509 331 Q509 307 506 281 Q503 255 497 229 L159 229 Q169 158 210 123 Q251 88 325 88 Q362 88 402.5 96.5 Q443 105 486 122 L486 20 Z M407 352 Q408 404 377.5 435.5 Q347 467 293 467 Q234 467 199 428 Q164 389 159 317 L404 317 Q405 325 406 334.5 Q407 344 407 352 Z " />
<glyph glyph-name="eogonek" unicode="&#x119;" horiz-adv-x="559" d="M418 -214 Q402 -224 378.5 -229.5 Q355 -235 332 -235 Q286 -235 258 -207.5 Q230 -180 230 -135 Q230 -101 245.5 -70.5 Q261 -40 295 -10 Q179 -2 114.5 71 Q50 144 50 269 Q50 400 118 478 Q186 556 302 556 Q401 556 455 496.5 Q509 437 509 331 Q509 307 506 281 Q503 255 497 229 L159 229 Q169 158 210 123 Q251 88 325 88 Q362 88 402.5 96.5 Q443 105 486 122 L486 20 Q469 13 451.5 8 Q434 3 418 -1 Q380 -23 357.5 -53.5 Q335 -84 335 -113 Q335 -129 345.5 -138 Q356 -147 374 -147 Q385 -147 397 -143.5 Q409 -140 418 -134 L418 -214 Z M407 352 Q408 404 377.5 435.5 Q347 467 293 467 Q234 467 199 428 Q164 389 159 317 L404 317 Q405 325 406 334.5 Q407 344 407 352 Z " />
<glyph glyph-name="ecaron" unicode="&#x11b;" horiz-adv-x="559" d="M290 748 L391 867 L453 816 L332 641 L247 641 L126 816 L188 867 L290 748 Z M486 20 Q444 4 404 -3.5 Q364 -11 324 -11 Q195 -11 122.5 62.5 Q50 136 50 269 Q50 400 118 478 Q186 556 302 556 Q401 556 455 496.5 Q509 437 509 331 Q509 307 506 281 Q503 255 497 229 L159 229 Q169 158 210 123 Q251 88 325 88 Q362 88 402.5 96.5 Q443 105 486 122 L486 20 Z M407 352 Q408 404 377.5 435.5 Q347 467 293 467 Q234 467 199 428 Q164 389 159 317 L404 317 Q405 325 406 334.5 Q407 344 407 352 Z " />
<glyph glyph-name="f" unicode="f" horiz-adv-x="412" d="M234 450 L234 0 L122 0 L122 450 L40 450 L40 545 L122 545 Q126 680 176 740.5 Q226 801 328 801 Q354 801 379.5 797 Q405 793 432 784 L432 680 Q416 691 392.5 697 Q369 703 341 703 Q280 703 257 672.5 Q234 642 234 545 L379 545 L379 450 L234 450 Z " />
<glyph glyph-name="fi" unicode="&#xfb01;" horiz-adv-x="704" d="M636 751 Q636 718 613.5 695.5 Q591 673 558 673 Q525 673 502.5 695.5 Q480 718 480 751 Q480 784 502.5 806.5 Q525 829 558 829 Q591 829 613.5 806.5 Q636 784 636 751 Z M234 450 L234 0 L122 0 L122 450 L40 450 L40 545 L122 545 Q126 680 176 740.5 Q226 801 328 801 Q354 801 379.5 797 Q405 793 432 784 L432 680 Q416 691 392.5 697 Q369 703 341 703 Q280 703 257 672.5 Q234 642 234 545 L379 545 L379 450 L234 450 Z M614 545 L614 0 L502 0 L502 545 L614 545 Z " />
<glyph glyph-name="fl" unicode="&#xfb02;" horiz-adv-x="704" d="M234 450 L234 0 L122 0 L122 450 L40 450 L40 545 L122 545 Q126 680 176 740.5 Q226 801 328 801 Q354 801 379.5 797 Q405 793 432 784 L432 680 Q416 691 392.5 697 Q369 703 341 703 Q280 703 257 672.5 Q234 642 234 545 L379 545 L379 450 L234 450 Z M614 791 L614 0 L502 0 L502 791 L614 791 Z " />
<glyph glyph-name="g" unicode="g" horiz-adv-x="587" d="M60 -85 Q60 -52 75.5 -23 Q91 6 115 21 Q93 32 82 52 Q71 72 71 99 Q71 129 84.5 164 Q98 199 127 242 Q102 267 88.5 300 Q75 333 75 370 Q75 452 132 504 Q189 556 287 556 Q325 556 357.5 548 Q390 540 415 524 L539 556 L539 451 L481 451 Q490 432 494.5 412 Q499 392 499 370 Q499 287 442 235.5 Q385 184 287 184 Q260 184 236.5 188 Q213 192 194 199 Q182 175 178 161 Q174 147 174 133 Q174 109 187 100.5 Q200 92 243 92 L373 92 Q456 92 501.5 53 Q547 14 547 -55 Q547 -140 479 -187.5 Q411 -235 295 -235 Q189 -235 124.5 -193 Q60 -151 60 -85 Z M391 370 Q391 415 364 439.5 Q337 464 287 464 Q237 464 210 439.5 Q183 415 183 370 Q183 325 210 300.5 Q237 276 287 276 Q337 276 364 300.5 Q391 325 391 370 Z M217 0 Q206 0 201 0 Q196 0 192 1 Q181 -12 174.5 -28 Q168 -44 168 -61 Q168 -100 202.5 -121.5 Q237 -143 301 -143 Q366 -143 402.5 -122 Q439 -101 439 -61 Q439 -30 415.5 -15 Q392 0 345 0 L217 0 Z " />
<glyph glyph-name="gcircumflex" unicode="&#x11d;" horiz-adv-x="587" d="M293 756 L192 637 L130 688 L251 863 L336 863 L457 688 L395 637 L293 756 Z M60 -85 Q60 -52 75.5 -23 Q91 6 115 21 Q93 32 82 52 Q71 72 71 99 Q71 129 84.5 164 Q98 199 127 242 Q102 267 88.5 300 Q75 333 75 370 Q75 452 132 504 Q189 556 287 556 Q325 556 357.5 548 Q390 540 415 524 L539 556 L539 451 L481 451 Q490 432 494.5 412 Q499 392 499 370 Q499 287 442 235.5 Q385 184 287 184 Q260 184 236.5 188 Q213 192 194 199 Q182 175 178 161 Q174 147 174 133 Q174 109 187 100.5 Q200 92 243 92 L373 92 Q456 92 501.5 53 Q547 14 547 -55 Q547 -140 479 -187.5 Q411 -235 295 -235 Q189 -235 124.5 -193 Q60 -151 60 -85 Z M391 370 Q391 415 364 439.5 Q337 464 287 464 Q237 464 210 439.5 Q183 415 183 370 Q183 325 210 300.5 Q237 276 287 276 Q337 276 364 300.5 Q391 325 391 370 Z M217 0 Q206 0 201 0 Q196 0 192 1 Q181 -12 174.5 -28 Q168 -44 168 -61 Q168 -100 202.5 -121.5 Q237 -143 301 -143 Q366 -143 402.5 -122 Q439 -101 439 -61 Q439 -30 415.5 -15 Q392 0 345 0 L217 0 Z " />
<glyph glyph-name="gbreve" unicode="&#x11f;" horiz-adv-x="587" d="M453 832 Q453 751 410 701 Q367 651 293 651 Q219 651 176 701 Q133 751 133 832 L216 832 Q218 789 238 765 Q258 741 293 741 Q328 741 348 765 Q368 789 370 832 L453 832 Z M60 -85 Q60 -52 75.5 -23 Q91 6 115 21 Q93 32 82 52 Q71 72 71 99 Q71 129 84.5 164 Q98 199 127 242 Q102 267 88.5 300 Q75 333 75 370 Q75 452 132 504 Q189 556 287 556 Q325 556 357.5 548 Q390 540 415 524 L539 556 L539 451 L481 451 Q490 432 494.5 412 Q499 392 499 370 Q499 287 442 235.5 Q385 184 287 184 Q260 184 236.5 188 Q213 192 194 199 Q182 175 178 161 Q174 147 174 133 Q174 109 187 100.5 Q200 92 243 92 L373 92 Q456 92 501.5 53 Q547 14 547 -55 Q547 -140 479 -187.5 Q411 -235 295 -235 Q189 -235 124.5 -193 Q60 -151 60 -85 Z M391 370 Q391 415 364 439.5 Q337 464 287 464 Q237 464 210 439.5 Q183 415 183 370 Q183 325 210 300.5 Q237 276 287 276 Q337 276 364 300.5 Q391 325 391 370 Z M217 0 Q206 0 201 0 Q196 0 192 1 Q181 -12 174.5 -28 Q168 -44 168 -61 Q168 -100 202.5 -121.5 Q237 -143 301 -143 Q366 -143 402.5 -122 Q439 -101 439 -61 Q439 -30 415.5 -15 Q392 0 345 0 L217 0 Z " />
<glyph glyph-name="gdotaccent" unicode="&#x121;" horiz-adv-x="587" d="M371 751 Q371 718 348.5 695.5 Q326 673 293 673 Q260 673 237.5 695.5 Q215 718 215 751 Q215 784 237.5 806.5 Q260 829 293 829 Q326 829 348.5 806.5 Q371 784 371 751 Z M60 -85 Q60 -52 75.5 -23 Q91 6 115 21 Q93 32 82 52 Q71 72 71 99 Q71 129 84.5 164 Q98 199 127 242 Q102 267 88.5 300 Q75 333 75 370 Q75 452 132 504 Q189 556 287 556 Q325 556 357.5 548 Q390 540 415 524 L539 556 L539 451 L481 451 Q490 432 494.5 412 Q499 392 499 370 Q499 287 442 235.5 Q385 184 287 184 Q260 184 236.5 188 Q213 192 194 199 Q182 175 178 161 Q174 147 174 133 Q174 109 187 100.5 Q200 92 243 92 L373 92 Q456 92 501.5 53 Q547 14 547 -55 Q547 -140 479 -187.5 Q411 -235 295 -235 Q189 -235 124.5 -193 Q60 -151 60 -85 Z M391 370 Q391 415 364 439.5 Q337 464 287 464 Q237 464 210 439.5 Q183 415 183 370 Q183 325 210 300.5 Q237 276 287 276 Q337 276 364 300.5 Q391 325 391 370 Z M217 0 Q206 0 201 0 Q196 0 192 1 Q181 -12 174.5 -28 Q168 -44 168 -61 Q168 -100 202.5 -121.5 Q237 -143 301 -143 Q366 -143 402.5 -122 Q439 -101 439 -61 Q439 -30 415.5 -15 Q392 0 345 0 L217 0 Z " />
<glyph glyph-name="gcommaaccent" unicode="&#x123;" horiz-adv-x="587" d="M195 729 L398 905 L456 845 L292 648 L195 729 Z M60 -85 Q60 -52 75.5 -23 Q91 6 115 21 Q93 32 82 52 Q71 72 71 99 Q71 129 84.5 164 Q98 199 127 242 Q102 267 88.5 300 Q75 333 75 370 Q75 452 132 504 Q189 556 287 556 Q325 556 357.5 548 Q390 540 415 524 L539 556 L539 451 L481 451 Q490 432 494.5 412 Q499 392 499 370 Q499 287 442 235.5 Q385 184 287 184 Q260 184 236.5 188 Q213 192 194 199 Q182 175 178 161 Q174 147 174 133 Q174 109 187 100.5 Q200 92 243 92 L373 92 Q456 92 501.5 53 Q547 14 547 -55 Q547 -140 479 -187.5 Q411 -235 295 -235 Q189 -235 124.5 -193 Q60 -151 60 -85 Z M391 370 Q391 415 364 439.5 Q337 464 287 464 Q237 464 210 439.5 Q183 415 183 370 Q183 325 210 300.5 Q237 276 287 276 Q337 276 364 300.5 Q391 325 391 370 Z M217 0 Q206 0 201 0 Q196 0 192 1 Q181 -12 174.5 -28 Q168 -44 168 -61 Q168 -100 202.5 -121.5 Q237 -143 301 -143 Q366 -143 402.5 -122 Q439 -101 439 -61 Q439 -30 415.5 -15 Q392 0 345 0 L217 0 Z " />
<glyph glyph-name="h" unicode="h" horiz-adv-x="620" d="M202 402 L202 0 L90 0 L90 791 L202 791 L202 505 L205 502 Q244 530 284.5 543 Q325 556 368 556 Q448 556 489 512 Q530 468 530 382 L530 0 L418 0 L418 345 Q418 405 399.5 430.5 Q381 456 338 456 Q300 456 259 440 Q218 424 202 402 Z " />
<glyph glyph-name="hcircumflex" unicode="&#x125;" horiz-adv-x="620" d="M143 952 L42 833 L-20 884 L101 1059 L186 1059 L307 884 L245 833 L143 952 Z M202 402 L202 0 L90 0 L90 791 L202 791 L202 505 L205 502 Q244 530 284.5 543 Q325 556 368 556 Q448 556 489 512 Q530 468 530 382 L530 0 L418 0 L418 345 Q418 405 399.5 430.5 Q381 456 338 456 Q300 456 259 440 Q218 424 202 402 Z " />
<glyph glyph-name="hbar" unicode="&#x127;" horiz-adv-x="620" d="M202 402 L202 0 L90 0 L90 614 L20 614 L20 710 L90 710 L90 791 L202 791 L202 710 L383 710 L383 614 L202 614 L202 505 L205 502 Q244 530 284.5 543 Q325 556 368 556 Q448 556 489 512 Q530 468 530 382 L530 0 L418 0 L418 345 Q418 405 399.5 430.5 Q381 456 338 456 Q300 456 259 440 Q218 424 202 402 Z " />
<glyph glyph-name="i" unicode="i" horiz-adv-x="292" d="M224 751 Q224 718 201.5 695.5 Q179 673 146 673 Q113 673 90.5 695.5 Q68 718 68 751 Q68 784 90.5 806.5 Q113 829 146 829 Q179 829 201.5 806.5 Q224 784 224 751 Z M202 545 L202 0 L90 0 L90 545 L202 545 Z " />
<glyph glyph-name="igrave" unicode="&#xec;" horiz-adv-x="292" d="M65 901 L225 707 L167 647 L-36 823 L65 901 Z M202 545 L202 0 L90 0 L90 545 L202 545 Z " />
<glyph glyph-name="iacute" unicode="&#xed;" horiz-adv-x="292" d="M329 822 L126 646 L68 706 L232 903 L329 822 Z M202 545 L202 0 L90 0 L90 545 L202 545 Z " />
<glyph glyph-name="icircumflex" unicode="&#xee;" horiz-adv-x="292" d="M146 756 L45 637 L-17 688 L104 863 L189 863 L310 688 L248 637 L146 756 Z M202 545 L202 0 L90 0 L90 545 L202 545 Z " />
<glyph glyph-name="idieresis" unicode="&#xef;" horiz-adv-x="292" d="M256 852 Q289 852 311.5 829.5 Q334 807 334 774 Q334 741 311.5 718.5 Q289 696 256 696 Q223 696 200.5 718.5 Q178 741 178 774 Q178 807 200.5 829.5 Q223 852 256 852 Z M36 852 Q69 852 91.5 829.5 Q114 807 114 774 Q114 741 91.5 718.5 Q69 696 36 696 Q3 696 -19.5 718.5 Q-42 741 -42 774 Q-42 807 -19.5 829.5 Q3 852 36 852 Z M202 545 L202 0 L90 0 L90 545 L202 545 Z " />
<glyph glyph-name="itilde" unicode="&#x129;" horiz-adv-x="292" d="M310 839 Q311 752 284 706 Q257 660 209 663 Q189 665 170.5 675 Q152 685 127 712 Q112 728 105.5 733 Q99 738 93 738 Q79 739 71.5 720.5 Q64 702 64 665 L-18 665 Q-19 750 8 796 Q35 842 83 839 Q105 837 123.5 827 Q142 817 167 789 Q181 774 187 769.5 Q193 765 199 765 Q213 764 220.5 783 Q228 802 228 839 L310 839 Z M202 545 L202 0 L90 0 L90 545 L202 545 Z " />
<glyph glyph-name="imacron" unicode="&#x12b;" horiz-adv-x="292" d="M307 791 L307 699 L-15 699 L-15 791 L307 791 Z M202 545 L202 0 L90 0 L90 545 L202 545 Z " />
<glyph glyph-name="ibreve" unicode="&#x12d;" horiz-adv-x="292" d="M306 832 Q306 751 263 701 Q220 651 146 651 Q72 651 29 701 Q-14 751 -14 832 L69 832 Q71 789 91 765 Q111 741 146 741 Q181 741 201 765 Q221 789 223 832 L306 832 Z M202 545 L202 0 L90 0 L90 545 L202 545 Z " />
<glyph glyph-name="iogonek" unicode="&#x12f;" horiz-adv-x="292" d="M224 751 Q224 718 201.5 695.5 Q179 673 146 673 Q113 673 90.5 695.5 Q68 718 68 751 Q68 784 90.5 806.5 Q113 829 146 829 Q179 829 201.5 806.5 Q224 784 224 751 Z M201 -214 Q185 -224 161.5 -229.5 Q138 -235 115 -235 Q69 -235 41 -207.5 Q13 -180 13 -135 Q13 -98 31.5 -65 Q50 -32 90 0 L90 545 L202 545 L202 0 Q164 -22 141 -53 Q118 -84 118 -113 Q118 -129 128.5 -138 Q139 -147 157 -147 Q168 -147 180 -143.5 Q192 -140 201 -134 L201 -214 Z " />
<glyph glyph-name="dotlessi" unicode="&#x131;" horiz-adv-x="292" d="M202 545 L202 0 L90 0 L90 545 L202 545 Z " />
<glyph glyph-name="idotaccent" unicode="&#xe0dc;" horiz-adv-x="292" d="M224 751 Q224 718 201.5 695.5 Q179 673 146 673 Q113 673 90.5 695.5 Q68 718 68 751 Q68 784 90.5 806.5 Q113 829 146 829 Q179 829 201.5 806.5 Q224 784 224 751 Z M202 545 L202 0 L90 0 L90 545 L202 545 Z " />
<glyph glyph-name="ij" unicode="&#x133;" horiz-adv-x="584" d="M518 751 Q518 718 495.5 695.5 Q473 673 440 673 Q407 673 384.5 695.5 Q362 718 362 751 Q362 784 384.5 806.5 Q407 829 440 829 Q473 829 495.5 806.5 Q518 784 518 751 Z M224 751 Q224 718 201.5 695.5 Q179 673 146 673 Q113 673 90.5 695.5 Q68 718 68 751 Q68 784 90.5 806.5 Q113 829 146 829 Q179 829 201.5 806.5 Q224 784 224 751 Z M222 -134 Q267 -134 296.5 -126 Q326 -118 345 -100 Q366 -81 374 -50.5 Q382 -20 382 49 L382 545 L494 545 L494 49 Q494 -38 475.5 -95 Q457 -152 417 -184 Q384 -211 335.5 -223.5 Q287 -236 222 -235 L222 -134 Z M202 545 L202 0 L90 0 L90 545 L202 545 Z " />
<glyph glyph-name="j" unicode="j" horiz-adv-x="292" d="M226 751 Q226 718 203.5 695.5 Q181 673 148 673 Q115 673 92.5 695.5 Q70 718 70 751 Q70 784 92.5 806.5 Q115 829 148 829 Q181 829 203.5 806.5 Q226 784 226 751 Z M-70 -134 Q-25 -134 4.5 -126 Q34 -118 53 -100 Q74 -81 82 -50.5 Q90 -20 90 49 L90 545 L202 545 L202 49 Q202 -38 183.5 -95 Q165 -152 125 -184 Q92 -211 43.5 -223.5 Q-5 -236 -70 -235 L-70 -134 Z " />
<glyph glyph-name="jcircumflex" unicode="&#x135;" horiz-adv-x="292" d="M138 756 L37 637 L-25 688 L96 863 L181 863 L302 688 L240 637 L138 756 Z M-70 -134 Q-25 -134 4.5 -126 Q34 -118 53 -100 Q74 -81 82 -50.5 Q90 -20 90 49 L90 545 L202 545 L202 49 Q202 -38 183.5 -95 Q165 -152 125 -184 Q92 -211 43.5 -223.5 Q-5 -236 -70 -235 L-70 -134 Z " />
<glyph glyph-name="dotlessj" unicode="&#x237;" horiz-adv-x="292" d="M-70 -134 Q-25 -134 4.5 -126 Q34 -118 53 -100 Q74 -81 82 -50.5 Q90 -20 90 49 L90 545 L202 545 L202 49 Q202 -38 183.5 -95 Q165 -152 125 -184 Q92 -211 43.5 -223.5 Q-5 -236 -70 -235 L-70 -134 Z " />
<glyph glyph-name="k" unicode="k" horiz-adv-x="553" d="M203 232 L203 0 L90 0 L90 791 L203 791 L203 327 Q244 327 259.5 335 Q275 343 293 366 Q304 379 318 399.5 Q332 420 353 455 Q361 468 372 485.5 Q383 503 408 545 L533 545 L392 332 Q376 308 361 293.5 Q346 279 337 279 L337 276 Q346 276 360.5 261.5 Q375 247 395 219 L548 0 L415 0 Q387 42 375 60 Q363 78 354 92 Q332 125 317.5 146 Q303 167 292 181 Q269 211 253.5 221.5 Q238 232 203 232 Z " />
<glyph glyph-name="kcommaaccent" unicode="&#x137;" horiz-adv-x="553" d="M203 232 L203 0 L90 0 L90 791 L203 791 L203 327 Q244 327 259.5 335 Q275 343 293 366 Q304 379 318 399.5 Q332 420 353 455 Q361 468 372 485.5 Q383 503 408 545 L533 545 L392 332 Q376 308 361 293.5 Q346 279 337 279 L337 276 Q346 276 360.5 261.5 Q375 247 395 219 L548 0 L415 0 Q387 42 375 60 Q363 78 354 92 Q332 125 317.5 146 Q303 167 292 181 Q269 211 253.5 221.5 Q238 232 203 232 Z M401 -134 L247 -251 L189 -191 L304 -53 L401 -134 Z " />
<glyph glyph-name="kgreenlandic" unicode="&#x138;" horiz-adv-x="533" d="M200 230 L200 0 L90 0 L90 546 L200 546 L200 328 Q230 328 247.5 345.5 Q265 363 306 422 Q316 436 329.5 456.5 Q343 477 390 546 L521 546 L354 330 Q342 314 330.5 302.5 Q319 291 306 284 Q305 283 304 282.5 Q303 282 303 282 L303 280 Q303 280 303.5 279.5 Q304 279 306 278 Q319 270 331 258 Q343 246 355 229 L528 0 L397 0 Q361 52 338.5 84 Q316 116 308 128 Q261 193 243 211.5 Q225 230 200 230 Z " />
<glyph glyph-name="l" unicode="l" horiz-adv-x="292" d="M202 791 L202 0 L90 0 L90 791 L202 791 Z " />
<glyph glyph-name="lacute" unicode="&#x13a;" horiz-adv-x="292" d="M334 1057 L131 881 L73 941 L237 1138 L334 1057 Z M202 791 L202 0 L90 0 L90 791 L202 791 Z " />
<glyph glyph-name="lcommaaccent" unicode="&#x13c;" horiz-adv-x="292" d="M202 791 L202 0 L90 0 L90 791 L202 791 Z M238 -134 L84 -251 L26 -191 L141 -53 L238 -134 Z " />
<glyph glyph-name="lcaron" unicode="&#x13e;" horiz-adv-x="342" d="M431 880 L337 628 L257 653 L308 905 L431 880 Z M202 791 L202 0 L90 0 L90 791 L202 791 Z " />
<glyph glyph-name="ldot" unicode="&#x140;" horiz-adv-x="342" d="M202 791 L202 0 L90 0 L90 791 L202 791 Z M398 516 Q398 483 375.5 460.5 Q353 438 320 438 Q287 438 264.5 460.5 Q242 483 242 516 Q242 549 264.5 571.5 Q287 594 320 594 Q353 594 375.5 571.5 Q398 549 398 516 Z " />
<glyph glyph-name="lslash" unicode="&#x142;" horiz-adv-x="292" d="M282 420 L202 370 L202 0 L90 0 L90 300 L10 250 L10 365 L90 415 L90 791 L202 791 L202 485 L282 535 L282 420 Z " />
<glyph glyph-name="m" unicode="m" horiz-adv-x="930" d="M202 403 L202 0 L90 0 L90 545 L202 545 L202 505 L205 502 Q243 530 282.5 543 Q322 556 365 556 Q413 556 446.5 540 Q480 524 496 493 Q536 524 583 540 Q630 556 680 556 Q761 556 800.5 513 Q840 470 840 382 L840 0 L728 0 L728 345 Q728 404 709.5 430 Q691 456 648 456 Q611 456 574 440 Q537 424 521 402 L521 0 L409 0 L409 339 Q409 404 391.5 430 Q374 456 330 456 Q292 456 255 441 Q218 426 202 403 Z " />
<glyph glyph-name="n" unicode="n" horiz-adv-x="620" d="M202 402 L202 0 L90 0 L90 545 L202 545 L202 505 L205 502 Q243 529 284 542.5 Q325 556 369 556 Q448 556 489 512 Q530 468 530 382 L530 0 L418 0 L418 345 Q418 406 400 431 Q382 456 339 456 Q300 456 259.5 440 Q219 424 202 402 Z " />
<glyph glyph-name="ntilde" unicode="&#xf1;" horiz-adv-x="620" d="M474 839 Q475 752 448 706 Q421 660 373 663 Q353 665 334.5 675 Q316 685 291 712 Q276 728 269.5 733 Q263 738 257 738 Q243 739 235.5 720.5 Q228 702 228 665 L146 665 Q145 750 172 796 Q199 842 247 839 Q269 837 287.5 827 Q306 817 331 789 Q345 774 351 769.5 Q357 765 363 765 Q377 764 384.5 783 Q392 802 392 839 L474 839 Z M202 402 L202 0 L90 0 L90 545 L202 545 L202 505 L205 502 Q243 529 284 542.5 Q325 556 369 556 Q448 556 489 512 Q530 468 530 382 L530 0 L418 0 L418 345 Q418 406 400 431 Q382 456 339 456 Q300 456 259.5 440 Q219 424 202 402 Z " />
<glyph glyph-name="nacute" unicode="&#x144;" horiz-adv-x="620" d="M522 822 L319 646 L261 706 L425 903 L522 822 Z M202 402 L202 0 L90 0 L90 545 L202 545 L202 505 L205 502 Q243 529 284 542.5 Q325 556 369 556 Q448 556 489 512 Q530 468 530 382 L530 0 L418 0 L418 345 Q418 406 400 431 Q382 456 339 456 Q300 456 259.5 440 Q219 424 202 402 Z " />
<glyph glyph-name="ncommaaccent" unicode="&#x146;" horiz-adv-x="620" d="M202 402 L202 0 L90 0 L90 545 L202 545 L202 505 L205 502 Q243 529 284 542.5 Q325 556 369 556 Q448 556 489 512 Q530 468 530 382 L530 0 L418 0 L418 345 Q418 406 400 431 Q382 456 339 456 Q300 456 259.5 440 Q219 424 202 402 Z M416 -134 L262 -251 L204 -191 L319 -53 L416 -134 Z " />
<glyph glyph-name="ncaron" unicode="&#x148;" horiz-adv-x="620" d="M318 748 L419 867 L481 816 L360 641 L275 641 L154 816 L216 867 L318 748 Z M202 402 L202 0 L90 0 L90 545 L202 545 L202 505 L205 502 Q243 529 284 542.5 Q325 556 369 556 Q448 556 489 512 Q530 468 530 382 L530 0 L418 0 L418 345 Q418 406 400 431 Q382 456 339 456 Q300 456 259.5 440 Q219 424 202 402 Z " />
<glyph glyph-name="napostrophe" unicode="&#x149;" horiz-adv-x="620" d="M131 747 L35 474 L-45 497 L8 769 L131 747 Z M202 402 L202 0 L90 0 L90 545 L202 545 L202 505 L205 502 Q243 529 284 542.5 Q325 556 369 556 Q448 556 489 512 Q530 468 530 382 L530 0 L418 0 L418 345 Q418 406 400 431 Q382 456 339 456 Q300 456 259.5 440 Q219 424 202 402 Z " />
<glyph glyph-name="eng" unicode="&#x14b;" horiz-adv-x="620" d="M202 402 L202 0 L90 0 L90 545 L202 545 L202 505 L205 502 Q243 529 284 542.5 Q325 556 369 556 Q448 556 489 512 Q530 468 530 382 L530 49 Q530 -42 511.5 -98 Q493 -154 453 -184 Q417 -211 368.5 -223.5 Q320 -236 258 -235 L258 -134 Q304 -134 333.5 -126 Q363 -118 381 -100 Q402 -80 410 -49.5 Q418 -19 418 49 L418 345 Q418 406 400 431 Q382 456 339 456 Q300 456 259.5 440 Q219 424 202 402 Z " />
<glyph glyph-name="o" unicode="o" horiz-adv-x="593" d="M543 272 Q543 145 476 67 Q409 -11 296 -11 Q184 -11 117 67 Q50 145 50 272 Q50 399 117 477.5 Q184 556 296 556 Q408 556 475.5 477.5 Q543 399 543 272 Z M430 272 Q430 356 394 406 Q358 456 296 456 Q233 456 198 406.5 Q163 357 163 272 Q163 187 198 138 Q233 89 296 89 Q358 89 394 138.5 Q430 188 430 272 Z " />
<glyph glyph-name="ograve" unicode="&#xf2;" horiz-adv-x="593" d="M196 901 L356 707 L298 647 L95 823 L196 901 Z M543 272 Q543 145 476 67 Q409 -11 296 -11 Q184 -11 117 67 Q50 145 50 272 Q50 399 117 477.5 Q184 556 296 556 Q408 556 475.5 477.5 Q543 399 543 272 Z M430 272 Q430 356 394 406 Q358 456 296 456 Q233 456 198 406.5 Q163 357 163 272 Q163 187 198 138 Q233 89 296 89 Q358 89 394 138.5 Q430 188 430 272 Z " />
<glyph glyph-name="oacute" unicode="&#xf3;" horiz-adv-x="593" d="M496 822 L293 646 L235 706 L399 903 L496 822 Z M543 272 Q543 145 476 67 Q409 -11 296 -11 Q184 -11 117 67 Q50 145 50 272 Q50 399 117 477.5 Q184 556 296 556 Q408 556 475.5 477.5 Q543 399 543 272 Z M430 272 Q430 356 394 406 Q358 456 296 456 Q233 456 198 406.5 Q163 357 163 272 Q163 187 198 138 Q233 89 296 89 Q358 89 394 138.5 Q430 188 430 272 Z " />
<glyph glyph-name="ocircumflex" unicode="&#xf4;" horiz-adv-x="593" d="M296 756 L195 637 L133 688 L254 863 L339 863 L460 688 L398 637 L296 756 Z M543 272 Q543 145 476 67 Q409 -11 296 -11 Q184 -11 117 67 Q50 145 50 272 Q50 399 117 477.5 Q184 556 296 556 Q408 556 475.5 477.5 Q543 399 543 272 Z M430 272 Q430 356 394 406 Q358 456 296 456 Q233 456 198 406.5 Q163 357 163 272 Q163 187 198 138 Q233 89 296 89 Q358 89 394 138.5 Q430 188 430 272 Z " />
<glyph glyph-name="otilde" unicode="&#xf5;" horiz-adv-x="593" d="M460 839 Q461 752 434 706 Q407 660 359 663 Q339 665 320.5 675 Q302 685 277 712 Q262 728 255.5 733 Q249 738 243 738 Q229 739 221.5 720.5 Q214 702 214 665 L132 665 Q131 750 158 796 Q185 842 233 839 Q255 837 273.5 827 Q292 817 317 789 Q331 774 337 769.5 Q343 765 349 765 Q363 764 370.5 783 Q378 802 378 839 L460 839 Z M543 272 Q543 145 476 67 Q409 -11 296 -11 Q184 -11 117 67 Q50 145 50 272 Q50 399 117 477.5 Q184 556 296 556 Q408 556 475.5 477.5 Q543 399 543 272 Z M430 272 Q430 356 394 406 Q358 456 296 456 Q233 456 198 406.5 Q163 357 163 272 Q163 187 198 138 Q233 89 296 89 Q358 89 394 138.5 Q430 188 430 272 Z " />
<glyph glyph-name="odieresis" unicode="&#xf6;" horiz-adv-x="593" d="M406 852 Q439 852 461.5 829.5 Q484 807 484 774 Q484 741 461.5 718.5 Q439 696 406 696 Q373 696 350.5 718.5 Q328 741 328 774 Q328 807 350.5 829.5 Q373 852 406 852 Z M186 852 Q219 852 241.5 829.5 Q264 807 264 774 Q264 741 241.5 718.5 Q219 696 186 696 Q153 696 130.5 718.5 Q108 741 108 774 Q108 807 130.5 829.5 Q153 852 186 852 Z M543 272 Q543 145 476 67 Q409 -11 296 -11 Q184 -11 117 67 Q50 145 50 272 Q50 399 117 477.5 Q184 556 296 556 Q408 556 475.5 477.5 Q543 399 543 272 Z M430 272 Q430 356 394 406 Q358 456 296 456 Q233 456 198 406.5 Q163 357 163 272 Q163 187 198 138 Q233 89 296 89 Q358 89 394 138.5 Q430 188 430 272 Z " />
<glyph glyph-name="omacron" unicode="&#x14d;" horiz-adv-x="593" d="M457 791 L457 699 L135 699 L135 791 L457 791 Z M543 272 Q543 145 476 67 Q409 -11 296 -11 Q184 -11 117 67 Q50 145 50 272 Q50 399 117 477.5 Q184 556 296 556 Q408 556 475.5 477.5 Q543 399 543 272 Z M430 272 Q430 356 394 406 Q358 456 296 456 Q233 456 198 406.5 Q163 357 163 272 Q163 187 198 138 Q233 89 296 89 Q358 89 394 138.5 Q430 188 430 272 Z " />
<glyph glyph-name="obreve" unicode="&#x14f;" horiz-adv-x="593" d="M456 832 Q456 751 413 701 Q370 651 296 651 Q222 651 179 701 Q136 751 136 832 L219 832 Q221 789 241 765 Q261 741 296 741 Q331 741 351 765 Q371 789 373 832 L456 832 Z M543 272 Q543 145 476 67 Q409 -11 296 -11 Q184 -11 117 67 Q50 145 50 272 Q50 399 117 477.5 Q184 556 296 556 Q408 556 475.5 477.5 Q543 399 543 272 Z M430 272 Q430 356 394 406 Q358 456 296 456 Q233 456 198 406.5 Q163 357 163 272 Q163 187 198 138 Q233 89 296 89 Q358 89 394 138.5 Q430 188 430 272 Z " />
<glyph glyph-name="ohungarumlaut" unicode="&#x151;" horiz-adv-x="593" d="M360 847 L195 635 L126 683 L249 908 L360 847 Z M575 812 L379 628 L319 685 L475 889 L575 812 Z M543 272 Q543 145 476 67 Q409 -11 296 -11 Q184 -11 117 67 Q50 145 50 272 Q50 399 117 477.5 Q184 556 296 556 Q408 556 475.5 477.5 Q543 399 543 272 Z M430 272 Q430 356 394 406 Q358 456 296 456 Q233 456 198 406.5 Q163 357 163 272 Q163 187 198 138 Q233 89 296 89 Q358 89 394 138.5 Q430 188 430 272 Z " />
<glyph glyph-name="oslash" unicode="&#xf8;" horiz-adv-x="593" d="M296 -11 Q259 -11 226 -2 Q193 7 166 24 L134 -20 L69 25 L107 78 Q80 114 65 163.5 Q50 213 50 272 Q50 399 117 477.5 Q184 556 296 556 Q334 556 367 546.5 Q400 537 427 520 L460 565 L525 520 L486 466 Q513 429 528 379.5 Q543 330 543 272 Q543 145 476 67 Q409 -11 296 -11 Z M163 272 Q163 244 167 220 Q171 196 178 176 L366 435 Q351 445 333.5 450.5 Q316 456 296 456 Q233 456 198 406.5 Q163 357 163 272 Z M430 272 Q430 299 426 323 Q422 347 415 367 L227 109 Q242 99 259 94 Q276 89 296 89 Q358 89 394 138.5 Q430 188 430 272 Z " />
<glyph glyph-name="oslashacute" unicode="&#x1ff;" horiz-adv-x="593" d="M483 822 L280 646 L222 706 L386 903 L483 822 Z M296 -11 Q259 -11 226 -2 Q193 7 166 24 L134 -20 L69 25 L107 78 Q80 114 65 163.5 Q50 213 50 272 Q50 399 117 477.5 Q184 556 296 556 Q334 556 367 546.5 Q400 537 427 520 L460 565 L525 520 L486 466 Q513 429 528 379.5 Q543 330 543 272 Q543 145 476 67 Q409 -11 296 -11 Z M163 272 Q163 244 167 220 Q171 196 178 176 L366 435 Q351 445 333.5 450.5 Q316 456 296 456 Q233 456 198 406.5 Q163 357 163 272 Z M430 272 Q430 299 426 323 Q422 347 415 367 L227 109 Q242 99 259 94 Q276 89 296 89 Q358 89 394 138.5 Q430 188 430 272 Z " />
<glyph glyph-name="oe" unicode="&#x153;" horiz-adv-x="939" d="M866 20 Q824 4 784 -3.5 Q744 -11 704 -11 Q632 -11 577 12.5 Q522 36 487 80 Q455 37 406 13 Q357 -11 296 -11 Q184 -11 117 67 Q50 145 50 272 Q50 399 117 477.5 Q184 556 296 556 Q357 556 405.5 532 Q454 508 486 464 Q519 508 569 532 Q619 556 682 556 Q781 556 835 496.5 Q889 437 889 331 Q889 307 886 281 Q883 255 877 229 L541 229 Q541 227 540.5 225.5 Q540 224 540 222 Q551 155 592 121.5 Q633 88 705 88 Q742 88 782.5 96.5 Q823 105 866 122 L866 20 Z M673 467 Q616 467 581 430 Q546 393 540 325 Q540 323 540 321 Q540 319 541 317 L784 317 Q785 325 786 334.5 Q787 344 787 352 Q788 404 757.5 435.5 Q727 467 673 467 Z M430 272 Q430 356 394 406 Q358 456 296 456 Q233 456 198 406.5 Q163 357 163 272 Q163 187 198 138 Q233 89 296 89 Q358 89 394 138.5 Q430 188 430 272 Z " />
<glyph glyph-name="p" unicode="p" horiz-adv-x="602" d="M203 10 L203 -224 L90 -224 L90 545 L203 545 L203 506 L206 503 Q231 528 266 542 Q301 556 340 556 Q435 556 493.5 478 Q552 400 552 279 Q552 150 485 69.5 Q418 -11 308 -11 Q275 -11 249.5 -5 Q224 1 206 13 L203 10 Z M309 457 Q274 457 244.5 440.5 Q215 424 203 400 L203 115 Q218 103 241.5 96.5 Q265 90 292 90 Q362 90 400.5 137.5 Q439 185 439 273 Q439 358 404 407.5 Q369 457 309 457 Z " />
<glyph glyph-name="thorn" unicode="&#xfe;" horiz-adv-x="602" d="M90 791 L203 791 L203 506 L206 503 Q231 528 266 542 Q301 556 340 556 Q435 556 493.5 478 Q552 400 552 279 Q552 150 485 69.5 Q418 -11 308 -11 Q275 -11 249.5 -5 Q224 1 206 13 L203 10 L203 -224 L90 -224 L90 791 Z M309 457 Q274 457 244.5 440.5 Q215 424 203 400 L203 115 Q218 103 241.5 96.5 Q265 90 292 90 Q362 90 400.5 137.5 Q439 185 439 273 Q439 358 404 407.5 Q369 457 309 457 Z " />
<glyph glyph-name="q" unicode="q" horiz-adv-x="602" d="M396 42 Q370 16 336.5 2.5 Q303 -11 264 -11 Q168 -11 109 66.5 Q50 144 50 266 Q50 395 117.5 475.5 Q185 556 297 556 Q327 556 353.5 549.5 Q380 543 406 529 L512 553 L512 -224 L399 -224 L399 39 L396 42 Z M399 428 Q382 440 356.5 447.5 Q331 455 305 455 Q239 455 201 405 Q163 355 163 269 Q163 186 199 137 Q235 88 297 88 Q332 88 359 104 Q386 120 399 147 L399 428 Z " />
<glyph glyph-name="r" unicode="r" horiz-adv-x="425" d="M202 360 L202 0 L90 0 L90 545 L202 545 L202 480 L206 477 Q234 515 273.5 535.5 Q313 556 361 556 Q370 556 378.5 555.5 Q387 555 395 554 L395 432 Q390 433 385 433 Q380 433 373 433 Q311 433 266.5 413.5 Q222 394 202 360 Z " />
<glyph glyph-name="racute" unicode="&#x155;" horiz-adv-x="425" d="M406 822 L203 646 L145 706 L309 903 L406 822 Z M202 360 L202 0 L90 0 L90 545 L202 545 L202 480 L206 477 Q234 515 273.5 535.5 Q313 556 361 556 Q370 556 378.5 555.5 Q387 555 395 554 L395 432 Q390 433 385 433 Q380 433 373 433 Q311 433 266.5 413.5 Q222 394 202 360 Z " />
<glyph glyph-name="rcommaaccent" unicode="&#x157;" horiz-adv-x="425" d="M202 360 L202 0 L90 0 L90 545 L202 545 L202 480 L206 477 Q234 515 273.5 535.5 Q313 556 361 556 Q370 556 378.5 555.5 Q387 555 395 554 L395 432 Q390 433 385 433 Q380 433 373 433 Q311 433 266.5 413.5 Q222 394 202 360 Z M243 -134 L89 -251 L31 -191 L146 -53 L243 -134 Z " />
<glyph glyph-name="rcaron" unicode="&#x159;" horiz-adv-x="425" d="M243 748 L344 867 L406 816 L285 641 L200 641 L79 816 L141 867 L243 748 Z M202 360 L202 0 L90 0 L90 545 L202 545 L202 480 L206 477 Q234 515 273.5 535.5 Q313 556 361 556 Q370 556 378.5 555.5 Q387 555 395 554 L395 432 Q390 433 385 433 Q380 433 373 433 Q311 433 266.5 413.5 Q222 394 202 360 Z " />
<glyph glyph-name="s" unicode="s" horiz-adv-x="497" d="M437 151 Q437 78 382 33.5 Q327 -11 235 -11 Q189 -11 143.5 0 Q98 11 70 29 L70 136 Q83 124 101.5 114.5 Q120 105 144 97 Q164 91 185 87.5 Q206 84 228 84 Q275 84 301 98.5 Q327 113 327 140 Q327 162 308 180 Q289 198 225 225 Q177 246 154.5 259 Q132 272 116 286 Q90 308 77.5 335.5 Q65 363 65 397 Q65 470 118.5 513 Q172 556 265 556 Q309 556 350 545.5 Q391 535 417 519 L417 419 Q381 439 340.5 450 Q300 461 262 461 Q220 461 197.5 446 Q175 431 175 405 Q175 383 194 365.5 Q213 348 277 321 Q325 301 347.5 288 Q370 275 386 261 Q412 239 424.5 212 Q437 185 437 151 Z " />
<glyph glyph-name="sacute" unicode="&#x15b;" horiz-adv-x="497" d="M444 822 L241 646 L183 706 L347 903 L444 822 Z M437 151 Q437 78 382 33.5 Q327 -11 235 -11 Q189 -11 143.5 0 Q98 11 70 29 L70 136 Q83 124 101.5 114.5 Q120 105 144 97 Q164 91 185 87.5 Q206 84 228 84 Q275 84 301 98.5 Q327 113 327 140 Q327 162 308 180 Q289 198 225 225 Q177 246 154.5 259 Q132 272 116 286 Q90 308 77.5 335.5 Q65 363 65 397 Q65 470 118.5 513 Q172 556 265 556 Q309 556 350 545.5 Q391 535 417 519 L417 419 Q381 439 340.5 450 Q300 461 262 461 Q220 461 197.5 446 Q175 431 175 405 Q175 383 194 365.5 Q213 348 277 321 Q325 301 347.5 288 Q370 275 386 261 Q412 239 424.5 212 Q437 185 437 151 Z " />
<glyph glyph-name="scircumflex" unicode="&#x15d;" horiz-adv-x="497" d="M251 756 L150 637 L88 688 L209 863 L294 863 L415 688 L353 637 L251 756 Z M437 151 Q437 78 382 33.5 Q327 -11 235 -11 Q189 -11 143.5 0 Q98 11 70 29 L70 136 Q83 124 101.5 114.5 Q120 105 144 97 Q164 91 185 87.5 Q206 84 228 84 Q275 84 301 98.5 Q327 113 327 140 Q327 162 308 180 Q289 198 225 225 Q177 246 154.5 259 Q132 272 116 286 Q90 308 77.5 335.5 Q65 363 65 397 Q65 470 118.5 513 Q172 556 265 556 Q309 556 350 545.5 Q391 535 417 519 L417 419 Q381 439 340.5 450 Q300 461 262 461 Q220 461 197.5 446 Q175 431 175 405 Q175 383 194 365.5 Q213 348 277 321 Q325 301 347.5 288 Q370 275 386 261 Q412 239 424.5 212 Q437 185 437 151 Z " />
<glyph glyph-name="scedilla" unicode="&#x15f;" horiz-adv-x="497" d="M337 -56 Q337 -115 300 -147 Q263 -179 202 -179 Q184 -179 168 -177 Q152 -175 138 -171 L138 -79 Q151 -83 163 -85 Q175 -87 187 -87 Q209 -87 222.5 -76 Q236 -65 236 -46 Q236 -37 233 -28 Q230 -19 226 -11 Q182 -10 139.5 1 Q97 12 70 29 L70 136 Q83 124 101.5 114.5 Q120 105 144 97 Q164 91 185 87.5 Q206 84 228 84 Q275 84 301 98.5 Q327 113 327 140 Q327 162 308 180 Q289 198 225 225 Q177 246 154.5 259 Q132 272 116 286 Q90 308 77.5 335.5 Q65 363 65 397 Q65 470 118.5 513 Q172 556 265 556 Q309 556 350 545.5 Q391 535 417 519 L417 419 Q381 439 340.5 450 Q300 461 262 461 Q220 461 197.5 446 Q175 431 175 405 Q175 383 194 365.5 Q213 348 277 321 Q325 301 347.5 288 Q370 275 386 261 Q412 239 424.5 212 Q437 185 437 151 Q437 96 405.5 57 Q374 18 319 1 Q328 -12 332.5 -27 Q337 -42 337 -56 Z " />
<glyph glyph-name="scaron" unicode="&#x161;" horiz-adv-x="497" d="M252 748 L353 867 L415 816 L294 641 L209 641 L88 816 L150 867 L252 748 Z M437 151 Q437 78 382 33.5 Q327 -11 235 -11 Q189 -11 143.5 0 Q98 11 70 29 L70 136 Q83 124 101.5 114.5 Q120 105 144 97 Q164 91 185 87.5 Q206 84 228 84 Q275 84 301 98.5 Q327 113 327 140 Q327 162 308 180 Q289 198 225 225 Q177 246 154.5 259 Q132 272 116 286 Q90 308 77.5 335.5 Q65 363 65 397 Q65 470 118.5 513 Q172 556 265 556 Q309 556 350 545.5 Q391 535 417 519 L417 419 Q381 439 340.5 450 Q300 461 262 461 Q220 461 197.5 446 Q175 431 175 405 Q175 383 194 365.5 Q213 348 277 321 Q325 301 347.5 288 Q370 275 386 261 Q412 239 424.5 212 Q437 185 437 151 Z " />
<glyph glyph-name="scommaaccent" unicode="&#x219;" horiz-adv-x="497" d="M437 151 Q437 78 382 33.5 Q327 -11 235 -11 Q189 -11 143.5 0 Q98 11 70 29 L70 136 Q83 124 101.5 114.5 Q120 105 144 97 Q164 91 185 87.5 Q206 84 228 84 Q275 84 301 98.5 Q327 113 327 140 Q327 162 308 180 Q289 198 225 225 Q177 246 154.5 259 Q132 272 116 286 Q90 308 77.5 335.5 Q65 363 65 397 Q65 470 118.5 513 Q172 556 265 556 Q309 556 350 545.5 Q391 535 417 519 L417 419 Q381 439 340.5 450 Q300 461 262 461 Q220 461 197.5 446 Q175 431 175 405 Q175 383 194 365.5 Q213 348 277 321 Q325 301 347.5 288 Q370 275 386 261 Q412 239 424.5 212 Q437 185 437 151 Z M333 -134 L179 -251 L121 -191 L236 -53 L333 -134 Z " />
<glyph glyph-name="longs" unicode="&#x17f;" horiz-adv-x="412" d="M40 450 L40 545 L122 545 Q126 680 176 740.5 Q226 801 328 801 Q354 801 379.5 797 Q405 793 432 784 L432 680 Q416 691 392.5 697 Q369 703 341 703 Q280 703 257 672.5 Q234 642 234 545 L234 0 L122 0 L122 450 L40 450 Z " />
<glyph glyph-name="germandbls" unicode="&#xdf;" horiz-adv-x="744" d="M121 0 L121 450 L40 450 L40 545 L121 545 Q121 664 183.5 732.5 Q246 801 357 801 Q450 801 507 753.5 Q564 706 564 628 Q564 590 549.5 558.5 Q535 527 490 485 Q460 456 451 440.5 Q442 425 442 409 Q442 386 459.5 367.5 Q477 349 538 321 Q582 299 603 286 Q624 273 639 258 Q662 236 673 209.5 Q684 183 684 150 Q684 76 630 32.5 Q576 -11 482 -11 Q435 -11 390 0 Q345 11 317 29 L317 136 Q330 124 348.5 114 Q367 104 391 97 Q411 90 432 87 Q453 84 475 84 Q523 84 548.5 98.5 Q574 113 574 141 Q574 163 556.5 180.5 Q539 198 479 226 Q390 266 361 303 Q332 340 332 392 Q332 428 345.5 458.5 Q359 489 402 533 Q434 567 444 586 Q454 605 454 626 Q454 662 427.5 682 Q401 702 353 702 Q292 702 263 665 Q234 628 234 549 L234 0 L121 0 Z " />
<glyph glyph-name="t" unicode="t" horiz-adv-x="434" d="M393 8 Q371 -1 344 -6 Q317 -11 289 -11 Q203 -11 160.5 37 Q118 85 118 181 L118 449 L30 449 L30 545 L118 545 L118 689 L230 689 L230 545 L382 545 L382 449 L230 449 L230 243 Q230 154 247.5 122 Q265 90 313 90 Q332 90 353.5 94 Q375 98 393 104 L393 8 Z " />
<glyph glyph-name="tcommaaccent" unicode="&#x163;" horiz-adv-x="434" d="M393 8 Q371 -1 344 -6 Q317 -11 289 -11 Q203 -11 160.5 37 Q118 85 118 181 L118 449 L30 449 L30 545 L118 545 L118 689 L230 689 L230 545 L382 545 L382 449 L230 449 L230 243 Q230 154 247.5 122 Q265 90 313 90 Q332 90 353.5 94 Q375 98 393 104 L393 8 Z M355 -134 L201 -251 L143 -191 L258 -53 L355 -134 Z " />
<glyph glyph-name="tcaron" unicode="&#x165;" horiz-adv-x="434" d="M459 880 L365 628 L285 653 L336 905 L459 880 Z M393 8 Q371 -1 344 -6 Q317 -11 289 -11 Q203 -11 160.5 37 Q118 85 118 181 L118 449 L30 449 L30 545 L118 545 L118 689 L230 689 L230 545 L382 545 L382 449 L230 449 L230 243 Q230 154 247.5 122 Q265 90 313 90 Q332 90 353.5 94 Q375 98 393 104 L393 8 Z " />
<glyph glyph-name="tbar" unicode="&#x167;" horiz-adv-x="434" d="M393 8 Q371 -1 344 -6 Q317 -11 289 -11 Q203 -11 160.5 37 Q118 85 118 181 L118 225 L30 225 L30 321 L118 321 L118 449 L30 449 L30 545 L118 545 L118 689 L230 689 L230 545 L382 545 L382 449 L230 449 L230 321 L383 321 L383 225 L230 225 Q232 147 250 118.5 Q268 90 313 90 Q332 90 353.5 94 Q375 98 393 104 L393 8 Z " />
<glyph glyph-name="u" unicode="u" horiz-adv-x="620" d="M415 43 Q377 16 336 2.5 Q295 -11 251 -11 Q172 -11 131 33 Q90 77 90 163 L90 545 L202 545 L202 200 Q202 139 220 114 Q238 89 281 89 Q319 89 360.5 105 Q402 121 418 143 L418 545 L530 545 L530 0 L418 0 L418 40 L415 43 Z " />
<glyph glyph-name="ugrave" unicode="&#xf9;" horiz-adv-x="620" d="M231 901 L391 707 L333 647 L130 823 L231 901 Z M415 43 Q377 16 336 2.5 Q295 -11 251 -11 Q172 -11 131 33 Q90 77 90 163 L90 545 L202 545 L202 200 Q202 139 220 114 Q238 89 281 89 Q319 89 360.5 105 Q402 121 418 143 L418 545 L530 545 L530 0 L418 0 L418 40 L415 43 Z " />
<glyph glyph-name="uacute" unicode="&#xfa;" horiz-adv-x="620" d="M516 822 L313 646 L255 706 L419 903 L516 822 Z M415 43 Q377 16 336 2.5 Q295 -11 251 -11 Q172 -11 131 33 Q90 77 90 163 L90 545 L202 545 L202 200 Q202 139 220 114 Q238 89 281 89 Q319 89 360.5 105 Q402 121 418 143 L418 545 L530 545 L530 0 L418 0 L418 40 L415 43 Z " />
<glyph glyph-name="ucircumflex" unicode="&#xfb;" horiz-adv-x="620" d="M310 756 L209 637 L147 688 L268 863 L353 863 L474 688 L412 637 L310 756 Z M415 43 Q377 16 336 2.5 Q295 -11 251 -11 Q172 -11 131 33 Q90 77 90 163 L90 545 L202 545 L202 200 Q202 139 220 114 Q238 89 281 89 Q319 89 360.5 105 Q402 121 418 143 L418 545 L530 545 L530 0 L418 0 L418 40 L415 43 Z " />
<glyph glyph-name="udieresis" unicode="&#xfc;" horiz-adv-x="620" d="M420 852 Q453 852 475.5 829.5 Q498 807 498 774 Q498 741 475.5 718.5 Q453 696 420 696 Q387 696 364.5 718.5 Q342 741 342 774 Q342 807 364.5 829.5 Q387 852 420 852 Z M200 852 Q233 852 255.5 829.5 Q278 807 278 774 Q278 741 255.5 718.5 Q233 696 200 696 Q167 696 144.5 718.5 Q122 741 122 774 Q122 807 144.5 829.5 Q167 852 200 852 Z M415 43 Q377 16 336 2.5 Q295 -11 251 -11 Q172 -11 131 33 Q90 77 90 163 L90 545 L202 545 L202 200 Q202 139 220 114 Q238 89 281 89 Q319 89 360.5 105 Q402 121 418 143 L418 545 L530 545 L530 0 L418 0 L418 40 L415 43 Z " />
<glyph glyph-name="utilde" unicode="&#x169;" horiz-adv-x="620" d="M474 839 Q475 752 448 706 Q421 660 373 663 Q353 665 334.5 675 Q316 685 291 712 Q276 728 269.5 733 Q263 738 257 738 Q243 739 235.5 720.5 Q228 702 228 665 L146 665 Q145 750 172 796 Q199 842 247 839 Q269 837 287.5 827 Q306 817 331 789 Q345 774 351 769.5 Q357 765 363 765 Q377 764 384.5 783 Q392 802 392 839 L474 839 Z M415 43 Q377 16 336 2.5 Q295 -11 251 -11 Q172 -11 131 33 Q90 77 90 163 L90 545 L202 545 L202 200 Q202 139 220 114 Q238 89 281 89 Q319 89 360.5 105 Q402 121 418 143 L418 545 L530 545 L530 0 L418 0 L418 40 L415 43 Z " />
<glyph glyph-name="umacron" unicode="&#x16b;" horiz-adv-x="620" d="M471 791 L471 699 L149 699 L149 791 L471 791 Z M415 43 Q377 16 336 2.5 Q295 -11 251 -11 Q172 -11 131 33 Q90 77 90 163 L90 545 L202 545 L202 200 Q202 139 220 114 Q238 89 281 89 Q319 89 360.5 105 Q402 121 418 143 L418 545 L530 545 L530 0 L418 0 L418 40 L415 43 Z " />
<glyph glyph-name="ubreve" unicode="&#x16d;" horiz-adv-x="620" d="M470 832 Q470 751 427 701 Q384 651 310 651 Q236 651 193 701 Q150 751 150 832 L233 832 Q235 789 255 765 Q275 741 310 741 Q345 741 365 765 Q385 789 387 832 L470 832 Z M415 43 Q377 16 336 2.5 Q295 -11 251 -11 Q172 -11 131 33 Q90 77 90 163 L90 545 L202 545 L202 200 Q202 139 220 114 Q238 89 281 89 Q319 89 360.5 105 Q402 121 418 143 L418 545 L530 545 L530 0 L418 0 L418 40 L415 43 Z " />
<glyph glyph-name="uring" unicode="&#x16f;" horiz-adv-x="620" d="M310 903 Q363 903 401 865 Q439 827 439 774 Q439 721 401 683 Q363 645 310 645 Q257 645 219 683 Q181 721 181 774 Q181 827 219 865 Q257 903 310 903 Z M310 829 Q285 829 270 814.5 Q255 800 255 774 Q255 749 270 734 Q285 719 310 719 Q335 719 350 734 Q365 749 365 774 Q365 799 350 814 Q335 829 310 829 Z M415 43 Q377 16 336 2.5 Q295 -11 251 -11 Q172 -11 131 33 Q90 77 90 163 L90 545 L202 545 L202 200 Q202 139 220 114 Q238 89 281 89 Q319 89 360.5 105 Q402 121 418 143 L418 545 L530 545 L530 0 L418 0 L418 40 L415 43 Z " />
<glyph glyph-name="uhungarumlaut" unicode="&#x171;" horiz-adv-x="620" d="M385 847 L220 635 L151 683 L274 908 L385 847 Z M600 812 L404 628 L344 685 L500 889 L600 812 Z M415 43 Q377 16 336 2.5 Q295 -11 251 -11 Q172 -11 131 33 Q90 77 90 163 L90 545 L202 545 L202 200 Q202 139 220 114 Q238 89 281 89 Q319 89 360.5 105 Q402 121 418 143 L418 545 L530 545 L530 0 L418 0 L418 40 L415 43 Z " />
<glyph glyph-name="uogonek" unicode="&#x173;" horiz-adv-x="620" d="M529 -214 Q513 -224 489.5 -229.5 Q466 -235 443 -235 Q397 -235 369 -207.5 Q341 -180 341 -135 Q341 -98 359.5 -65 Q378 -32 418 0 L418 40 L415 43 Q377 16 336 2.5 Q295 -11 251 -11 Q172 -11 131 33 Q90 77 90 163 L90 545 L202 545 L202 200 Q202 139 220 114 Q238 89 281 89 Q319 89 360.5 105 Q402 121 418 143 L418 545 L530 545 L530 0 Q492 -22 469 -53 Q446 -84 446 -113 Q446 -129 456.5 -138 Q467 -147 485 -147 Q496 -147 508 -143.5 Q520 -140 529 -134 L529 -214 Z " />
<glyph glyph-name="v" unicode="v" horiz-adv-x="522" d="M512 545 L317 0 L205 0 L10 545 L133 545 L239 208 Q249 177 254 157 Q259 137 260 127 L263 127 Q264 137 269.5 157.5 Q275 178 284 208 L389 545 L512 545 Z " />
<glyph glyph-name="w" unicode="w" horiz-adv-x="804" d="M378 297 L286 0 L173 0 L10 545 L131 545 L210 231 Q221 190 226 165.5 Q231 141 230 134 L233 134 Q233 141 239 165.5 Q245 190 257 231 L349 545 L461 545 L551 231 Q563 189 569 165 Q575 141 574 134 L577 134 Q577 141 582.5 165 Q588 189 598 231 L678 545 L794 545 L629 0 L516 0 L427 297 Q416 336 410 360 Q404 384 404 394 L401 394 Q402 384 396 360 Q390 336 378 297 Z " />
<glyph glyph-name="wcircumflex" unicode="&#x175;" horiz-adv-x="804" d="M402 756 L301 637 L239 688 L360 863 L445 863 L566 688 L504 637 L402 756 Z M378 297 L286 0 L173 0 L10 545 L131 545 L210 231 Q221 190 226 165.5 Q231 141 230 134 L233 134 Q233 141 239 165.5 Q245 190 257 231 L349 545 L461 545 L551 231 Q563 189 569 165 Q575 141 574 134 L577 134 Q577 141 582.5 165 Q588 189 598 231 L678 545 L794 545 L629 0 L516 0 L427 297 Q416 336 410 360 Q404 384 404 394 L401 394 Q402 384 396 360 Q390 336 378 297 Z " />
<glyph glyph-name="wgrave" unicode="&#x1e81;" horiz-adv-x="804" d="M310 901 L470 707 L412 647 L209 823 L310 901 Z M378 297 L286 0 L173 0 L10 545 L131 545 L210 231 Q221 190 226 165.5 Q231 141 230 134 L233 134 Q233 141 239 165.5 Q245 190 257 231 L349 545 L461 545 L551 231 Q563 189 569 165 Q575 141 574 134 L577 134 Q577 141 582.5 165 Q588 189 598 231 L678 545 L794 545 L629 0 L516 0 L427 297 Q416 336 410 360 Q404 384 404 394 L401 394 Q402 384 396 360 Q390 336 378 297 Z " />
<glyph glyph-name="wacute" unicode="&#x1e83;" horiz-adv-x="804" d="M601 822 L398 646 L340 706 L504 903 L601 822 Z M378 297 L286 0 L173 0 L10 545 L131 545 L210 231 Q221 190 226 165.5 Q231 141 230 134 L233 134 Q233 141 239 165.5 Q245 190 257 231 L349 545 L461 545 L551 231 Q563 189 569 165 Q575 141 574 134 L577 134 Q577 141 582.5 165 Q588 189 598 231 L678 545 L794 545 L629 0 L516 0 L427 297 Q416 336 410 360 Q404 384 404 394 L401 394 Q402 384 396 360 Q390 336 378 297 Z " />
<glyph glyph-name="wdieresis" unicode="&#x1e85;" horiz-adv-x="804" d="M512 852 Q545 852 567.5 829.5 Q590 807 590 774 Q590 741 567.5 718.5 Q545 696 512 696 Q479 696 456.5 718.5 Q434 741 434 774 Q434 807 456.5 829.5 Q479 852 512 852 Z M292 852 Q325 852 347.5 829.5 Q370 807 370 774 Q370 741 347.5 718.5 Q325 696 292 696 Q259 696 236.5 718.5 Q214 741 214 774 Q214 807 236.5 829.5 Q259 852 292 852 Z M378 297 L286 0 L173 0 L10 545 L131 545 L210 231 Q221 190 226 165.5 Q231 141 230 134 L233 134 Q233 141 239 165.5 Q245 190 257 231 L349 545 L461 545 L551 231 Q563 189 569 165 Q575 141 574 134 L577 134 Q577 141 582.5 165 Q588 189 598 231 L678 545 L794 545 L629 0 L516 0 L427 297 Q416 336 410 360 Q404 384 404 394 L401 394 Q402 384 396 360 Q390 336 378 297 Z " />
<glyph glyph-name="x" unicode="x" horiz-adv-x="526" d="M258 198 L143 0 L20 0 L199 287 L30 545 L156 545 L266 365 L269 365 L372 545 L496 545 L327 274 L506 0 L380 0 L261 198 L258 198 Z " />
<glyph glyph-name="y" unicode="y" horiz-adv-x="522" d="M317 0 Q271 -130 218.5 -177.5 Q166 -225 75 -233 Q68 -234 59 -234 Q50 -234 31 -234 L31 -134 Q39 -134 48 -133.5 Q57 -133 69 -132 Q127 -124 160.5 -91.5 Q194 -59 205 0 L10 545 L133 545 L240 208 Q252 172 257 152 Q262 132 260 127 L263 127 Q262 132 267 152 Q272 172 283 208 L389 545 L512 545 L317 0 Z " />
<glyph glyph-name="yacute" unicode="&#xfd;" horiz-adv-x="522" d="M452 822 L249 646 L191 706 L355 903 L452 822 Z M317 0 Q271 -130 218.5 -177.5 Q166 -225 75 -233 Q68 -234 59 -234 Q50 -234 31 -234 L31 -134 Q39 -134 48 -133.5 Q57 -133 69 -132 Q127 -124 160.5 -91.5 Q194 -59 205 0 L10 545 L133 545 L240 208 Q252 172 257 152 Q262 132 260 127 L263 127 Q262 132 267 152 Q272 172 283 208 L389 545 L512 545 L317 0 Z " />
<glyph glyph-name="ydieresis" unicode="&#xff;" horiz-adv-x="522" d="M371 852 Q404 852 426.5 829.5 Q449 807 449 774 Q449 741 426.5 718.5 Q404 696 371 696 Q338 696 315.5 718.5 Q293 741 293 774 Q293 807 315.5 829.5 Q338 852 371 852 Z M151 852 Q184 852 206.5 829.5 Q229 807 229 774 Q229 741 206.5 718.5 Q184 696 151 696 Q118 696 95.5 718.5 Q73 741 73 774 Q73 807 95.5 829.5 Q118 852 151 852 Z M317 0 Q271 -130 218.5 -177.5 Q166 -225 75 -233 Q68 -234 59 -234 Q50 -234 31 -234 L31 -134 Q39 -134 48 -133.5 Q57 -133 69 -132 Q127 -124 160.5 -91.5 Q194 -59 205 0 L10 545 L133 545 L240 208 Q252 172 257 152 Q262 132 260 127 L263 127 Q262 132 267 152 Q272 172 283 208 L389 545 L512 545 L317 0 Z " />
<glyph glyph-name="ycircumflex" unicode="&#x177;" horiz-adv-x="522" d="M261 756 L160 637 L98 688 L219 863 L304 863 L425 688 L363 637 L261 756 Z M317 0 Q271 -130 218.5 -177.5 Q166 -225 75 -233 Q68 -234 59 -234 Q50 -234 31 -234 L31 -134 Q39 -134 48 -133.5 Q57 -133 69 -132 Q127 -124 160.5 -91.5 Q194 -59 205 0 L10 545 L133 545 L240 208 Q252 172 257 152 Q262 132 260 127 L263 127 Q262 132 267 152 Q272 172 283 208 L389 545 L512 545 L317 0 Z " />
<glyph glyph-name="ygrave" unicode="&#x1ef3;" horiz-adv-x="522" d="M166 901 L326 707 L268 647 L65 823 L166 901 Z M317 0 Q271 -130 218.5 -177.5 Q166 -225 75 -233 Q68 -234 59 -234 Q50 -234 31 -234 L31 -134 Q39 -134 48 -133.5 Q57 -133 69 -132 Q127 -124 160.5 -91.5 Q194 -59 205 0 L10 545 L133 545 L240 208 Q252 172 257 152 Q262 132 260 127 L263 127 Q262 132 267 152 Q272 172 283 208 L389 545 L512 545 L317 0 Z " />
<glyph glyph-name="z" unicode="z" horiz-adv-x="508" d="M458 99 L458 0 L60 0 L60 101 L319 443 L316 446 L71 446 L71 545 L447 545 L447 444 L189 102 L192 99 L458 99 Z " />
<glyph glyph-name="zacute" unicode="&#x17a;" horiz-adv-x="508" d="M441 822 L238 646 L180 706 L344 903 L441 822 Z M458 99 L458 0 L60 0 L60 101 L319 443 L316 446 L71 446 L71 545 L447 545 L447 444 L189 102 L192 99 L458 99 Z " />
<glyph glyph-name="zdotaccent" unicode="&#x17c;" horiz-adv-x="508" d="M337 751 Q337 718 314.5 695.5 Q292 673 259 673 Q226 673 203.5 695.5 Q181 718 181 751 Q181 784 203.5 806.5 Q226 829 259 829 Q292 829 314.5 806.5 Q337 784 337 751 Z M458 99 L458 0 L60 0 L60 101 L319 443 L316 446 L71 446 L71 545 L447 545 L447 444 L189 102 L192 99 L458 99 Z " />
<glyph glyph-name="zcaron" unicode="&#x17e;" horiz-adv-x="508" d="M260 748 L361 867 L423 816 L302 641 L217 641 L96 816 L158 867 L260 748 Z M458 99 L458 0 L60 0 L60 101 L319 443 L316 446 L71 446 L71 545 L447 545 L447 444 L189 102 L192 99 L458 99 Z " />
<glyph glyph-name="ordfeminine" unicode="&#xaa;" horiz-adv-x="436" d="M282 479 Q262 459 236 448.5 Q210 438 180 438 Q127 438 96 468 Q65 498 65 548 Q65 602 107.5 629.5 Q150 657 233 657 L272 657 L272 669 Q272 693 256 704 Q240 715 206 715 Q176 715 150.5 710.5 Q125 706 95 694 L95 784 Q122 793 153 797.5 Q184 802 219 802 Q303 802 339 765 Q375 728 375 646 L375 445 L297 445 L284 478 L282 479 Z M241 591 Q202 591 184 582 Q166 573 166 551 Q166 534 177.5 525 Q189 516 210 516 Q233 516 253 524.5 Q273 533 281 544 L281 591 L241 591 Z M386 374 L386 273 L50 273 L50 374 L386 374 Z " />
<glyph glyph-name="ordmasculine" unicode="&#xba;" horiz-adv-x="456" d="M406 619 Q406 536 358 486.5 Q310 437 228 437 Q146 437 98 486.5 Q50 536 50 619 Q50 702 98 751.5 Q146 801 228 801 Q310 801 358 751.5 Q406 702 406 619 Z M302 619 Q302 665 282.5 690.5 Q263 716 228 716 Q192 716 173 690.5 Q154 665 154 619 Q154 573 173 547.5 Q192 522 228 522 Q263 522 282.5 547.5 Q302 573 302 619 Z M396 374 L396 273 L60 273 L60 374 L396 374 Z " />
<glyph glyph-name="schwa" unicode="&#x259;" horiz-adv-x="559" d="M73 526 Q115 542 155 549.5 Q195 557 235 557 Q364 557 436.5 483.5 Q509 410 509 277 Q509 146 441 68 Q373 -10 257 -10 Q158 -10 104 49.5 Q50 109 50 215 Q50 239 53 265 Q56 291 62 317 L400 317 Q390 388 349 423 Q308 458 234 458 Q197 458 156.5 449.5 Q116 441 73 424 L73 526 Z M152 194 Q151 142 181.5 110.5 Q212 79 266 79 Q325 79 360 118 Q395 157 400 229 L155 229 Q154 221 153 211.5 Q152 202 152 194 Z " />
<glyph glyph-name="litre" unicode="&#x2113;" horiz-adv-x="450" d="M372 9 Q352 0 319 -5 Q286 -10 256 -10 Q194 -10 154.5 26.5 Q115 63 102 133 L54 91 L3 163 L95 241 L95 563 Q95 679 139 740.5 Q183 802 265 802 Q339 802 379.5 748.5 Q420 695 420 601 Q420 495 368 398.5 Q316 302 208 212 Q213 139 232 114.5 Q251 90 293 90 Q313 90 335.5 94 Q358 98 372 104 L372 9 Z M207 546 L207 327 Q263 383 287 443.5 Q311 504 311 584 Q311 647 299 676 Q287 705 260 705 Q229 705 218 670 Q207 635 207 546 Z " />
<glyph glyph-name="ampersand" unicode="&#x26;" horiz-adv-x="719" d="M178 568 Q178 509 228 476 Q278 443 358 443 L668 443 L668 342 L536 342 L536 206 Q536 140 551.5 115 Q567 90 607 90 Q624 90 642 93.5 Q660 97 679 104 L679 8 Q655 -1 631 -6 Q607 -11 583 -11 Q535 -11 501.5 8 Q468 27 447 64 Q435 49 417 35.5 Q399 22 376 10 Q353 0 327 -5.5 Q301 -11 273 -11 Q174 -11 112 48.5 Q50 108 50 206 Q50 277 83.5 328 Q117 379 174 398 L174 400 Q120 423 90.5 469.5 Q61 516 61 578 Q61 668 124 721 Q187 774 297 774 Q349 774 400.5 763 Q452 752 485 733 L485 622 Q469 633 448.5 642 Q428 651 403 658 Q380 665 357.5 668 Q335 671 312 671 Q247 671 212.5 644.5 Q178 618 178 568 Z M167 216 Q167 158 202 123.5 Q237 89 297 89 Q340 89 374 105.5 Q408 122 423 150 L423 342 L358 342 Q258 342 212.5 311 Q167 280 167 216 Z " />
<glyph glyph-name="i.superior" unicode="&#x2071;" horiz-adv-x="242" d="M187 752 Q187 724 168 705.5 Q149 687 121 687 Q93 687 74 705.5 Q55 724 55 752 Q55 780 74 799 Q93 818 121 818 Q149 818 168 799 Q187 780 187 752 Z M173 623 L173 273 L69 273 L69 623 L173 623 Z " />
<glyph glyph-name="n.superior" unicode="&#x207f;" horiz-adv-x="466" d="M174 521 L174 273 L70 273 L70 623 L174 623 L174 599 L176 597 Q198 613 224.5 621.5 Q251 630 282 630 Q338 630 367 600 Q396 570 396 512 L396 273 L293 273 L293 487 Q293 519 283.5 531.5 Q274 544 249 544 Q227 544 206 537.5 Q185 531 174 521 Z " />
<glyph glyph-name="zero.slash" unicode="&#xe12f;" horiz-adv-x="691" d="M621 381 Q621 189 551 89 Q481 -11 345 -11 Q209 -11 139.5 88.5 Q70 188 70 381 Q70 574 139.5 674 Q209 774 345 774 Q481 774 551 673.5 Q621 573 621 381 Z M188 381 Q188 335 191.5 296 Q195 257 203 227 L433 639 Q415 654 393 661.5 Q371 669 345 669 Q265 669 226.5 599.5 Q188 530 188 381 Z M503 381 Q503 425 499.5 463 Q496 501 489 531 L260 121 Q277 108 298.5 101 Q320 94 345 94 Q425 94 464 163.5 Q503 233 503 381 Z " />
<glyph glyph-name="zero" unicode="0" horiz-adv-x="691" d="M621 381 Q621 189 551 89 Q481 -11 345 -11 Q209 -11 139.5 88.5 Q70 188 70 381 Q70 574 139.5 674 Q209 774 345 774 Q481 774 551 673.5 Q621 573 621 381 Z M503 381 Q503 529 464 599 Q425 669 345 669 Q265 669 226.5 599.5 Q188 530 188 381 Q188 233 226.5 163.5 Q265 94 345 94 Q425 94 464 163.5 Q503 233 503 381 Z " />
<glyph glyph-name="one" unicode="1" horiz-adv-x="537" d="M492 103 L492 0 L69 0 L69 103 L223 103 L223 564 L60 564 L60 654 Q81 654 99 656.5 Q117 659 133 663 Q152 669 167.5 677.5 Q183 686 194 698 Q209 714 216 730 Q223 746 223 763 L338 763 L338 103 L492 103 Z " />
<glyph glyph-name="two" unicode="2" horiz-adv-x="581" d="M511 103 L511 0 L60 0 L60 123 Q143 202 184 242.5 Q225 283 254 315 Q322 389 352.5 445 Q383 501 383 549 Q383 608 349 640 Q315 672 254 672 Q207 672 157 652 Q107 632 71 600 L71 713 Q112 742 163.5 758.5 Q215 775 266 775 Q378 775 439 716.5 Q500 658 500 549 Q500 464 437.5 371 Q375 278 194 106 L197 103 L511 103 Z " />
<glyph glyph-name="three" unicode="3" horiz-adv-x="569" d="M244 -11 Q220 -11 197.5 -8.5 Q175 -6 154 -2 Q126 4 105 12 Q84 20 70 30 L70 144 Q85 132 106 122.5 Q127 113 154 105 Q176 99 199.5 95.5 Q223 92 247 92 Q316 92 359 127 Q402 162 402 219 Q402 281 355.5 311.5 Q309 342 211 342 L137 342 L137 443 L211 443 Q291 443 341 475.5 Q391 508 391 567 Q391 618 356.5 644.5 Q322 671 257 671 Q234 671 211.5 668 Q189 665 166 658 Q141 651 120.5 642 Q100 633 84 622 L84 733 Q117 752 168.5 763 Q220 774 272 774 Q381 774 444.5 722 Q508 670 508 581 Q508 518 478.5 470.5 Q449 423 395 400 L395 398 Q454 379 486.5 332 Q519 285 519 216 Q519 112 443 50.5 Q367 -11 244 -11 Z " />
<glyph glyph-name="four" unicode="4" horiz-adv-x="651" d="M378 0 L378 179 L50 179 L50 275 L357 763 L493 763 L493 275 L581 275 L581 179 L493 179 L493 0 L378 0 Z M172 275 L378 275 L378 633 L375 633 Q371 622 364 608 Q357 594 311 517 L169 278 L172 275 Z " />
<glyph glyph-name="five" unicode="5" horiz-adv-x="601" d="M258 -11 Q233 -11 210 -9 Q187 -7 166 -2 Q136 4 115 12 Q94 20 80 30 L80 143 Q95 131 117 121.5 Q139 112 167 104 Q190 98 213.5 95 Q237 92 262 92 Q332 92 373 129.5 Q414 167 414 230 Q414 284 383.5 316.5 Q353 349 292 360 Q266 365 233.5 366 Q201 367 95 360 L95 764 L491 764 L491 661 L210 661 L210 461 Q364 474 447.5 415 Q531 356 531 236 Q531 128 456.5 58.5 Q382 -11 258 -11 Z " />
<glyph glyph-name="six" unicode="6" horiz-adv-x="643" d="M578 243 Q578 133 508.5 61 Q439 -11 328 -11 Q202 -11 136 83.5 Q70 178 70 356 Q70 557 150.5 665.5 Q231 774 382 774 Q420 774 460.5 766 Q501 758 541 743 L541 629 Q496 650 458 660.5 Q420 671 386 671 Q288 671 236.5 609 Q185 547 185 429 Q220 454 260 466.5 Q300 479 342 479 Q451 479 514.5 415 Q578 351 578 243 Z M461 234 Q461 306 423.5 344.5 Q386 383 317 383 Q277 383 242.5 370.5 Q208 358 185 336 Q185 213 221.5 150 Q258 87 330 87 Q392 87 426.5 126.5 Q461 166 461 234 Z " />
<glyph glyph-name="seven" unicode="7" horiz-adv-x="534" d="M494 651 L204 0 L85 0 L381 657 L378 660 L30 660 L30 763 L494 763 L494 651 Z " />
<glyph glyph-name="eight" unicode="8" horiz-adv-x="674" d="M604 209 Q604 114 527 51.5 Q450 -11 338 -11 Q217 -11 143.5 47 Q70 105 70 201 Q70 262 106 315 Q142 368 207 405 Q155 432 126.5 474.5 Q98 517 98 568 Q98 657 166.5 715.5 Q235 774 339 774 Q442 774 506.5 720 Q571 666 571 582 Q571 527 541 481 Q511 435 461 410 Q534 373 569 323.5 Q604 274 604 209 Z M454 565 Q454 616 421.5 647 Q389 678 333 678 Q281 678 248 648 Q215 618 215 573 Q215 531 252.5 500 Q290 469 369 446 Q408 465 431 496.5 Q454 528 454 565 Z M487 210 Q487 258 437 297 Q387 336 292 360 Q245 340 216 301.5 Q187 263 187 217 Q187 157 226.5 121 Q266 85 333 85 Q404 85 445.5 118.5 Q487 152 487 210 Z " />
<glyph glyph-name="nine" unicode="9" horiz-adv-x="643" d="M65 520 Q65 630 134.5 702 Q204 774 315 774 Q441 774 507 679.5 Q573 585 573 407 Q573 206 492.5 97.5 Q412 -11 261 -11 Q223 -11 182.5 -3 Q142 5 102 20 L102 134 Q147 113 185 102.5 Q223 92 257 92 Q355 92 406.5 154 Q458 216 458 334 Q423 309 383 296.5 Q343 284 301 284 Q192 284 128.5 348 Q65 412 65 520 Z M182 529 Q182 457 219.5 418.5 Q257 380 326 380 Q366 380 400.5 392.5 Q435 405 458 427 Q458 550 421.5 613 Q385 676 313 676 Q251 676 216.5 636.5 Q182 597 182 529 Z " />
<glyph glyph-name="dollar" unicode="&#x24;" horiz-adv-x="570" d="M510 208 Q510 128 465.5 74 Q421 20 341 0 L341 -78 L229 -78 L229 -11 Q184 -9 142.5 1 Q101 11 60 29 L60 149 Q101 122 149 107.5 Q197 93 246 93 Q313 93 350.5 120 Q388 147 388 195 Q388 232 362.5 262.5 Q337 293 250 340 Q193 371 166.5 389.5 Q140 408 121 428 Q92 457 78 492.5 Q64 528 64 570 Q64 646 108 697.5 Q152 749 229 766 L229 870 L341 870 L341 773 Q377 770 410.5 761 Q444 752 473 737 L473 611 Q444 637 397.5 652 Q351 667 302 667 Q246 667 216 644.5 Q186 622 186 581 Q186 546 210.5 517.5 Q235 489 319 445 Q378 414 405.5 395 Q433 376 452 356 Q482 325 496 288.5 Q510 252 510 208 Z " />
<glyph glyph-name="cent" unicode="&#xa2;" horiz-adv-x="494" d="M444 136 Q425 124 398 115 Q371 106 341 102 L341 0 L229 0 L229 107 Q145 128 97.5 200.5 Q50 273 50 382 Q50 491 97.5 564 Q145 637 229 658 L229 763 L341 763 L341 663 Q371 659 397.5 651 Q424 643 441 632 L441 524 Q423 542 384.5 553.5 Q346 565 306 565 Q233 565 198 521 Q163 477 163 387 Q163 293 198 246.5 Q233 200 304 200 Q341 200 381.5 212 Q422 224 444 241 L444 136 Z " />
<glyph glyph-name="sterling" unicode="&#xa3;" horiz-adv-x="634" d="M574 101 L574 0 L70 0 L70 101 L148 101 Q181 144 190 194 Q199 244 186 309 Q185 314 183 322.5 Q181 331 177 342 L80 342 L80 443 L150 443 Q142 476 136 508.5 Q130 541 130 564 Q130 661 192.5 717 Q255 773 366 773 Q419 773 473 759 Q527 745 560 723 L560 602 Q534 629 484 649 Q434 669 385 669 Q313 669 278.5 643 Q244 617 244 563 Q244 549 251.5 515.5 Q259 482 268 443 L538 443 L538 342 L292 342 Q294 332 295.5 323 Q297 314 298 306 Q307 241 300 190 Q293 139 269 101 L574 101 Z " />
<glyph glyph-name="yen" unicode="&#xa5;" horiz-adv-x="645" d="M573 155 L383 155 L383 0 L263 0 L263 155 L69 155 L69 256 L263 256 L263 345 L69 345 L69 446 L203 446 L10 763 L146 763 L300 502 Q306 492 311.5 479.5 Q317 467 322 451 L325 451 Q331 466 336.5 479 Q342 492 348 502 L499 763 L635 763 L443 446 L573 446 L573 345 L383 345 L383 256 L573 256 L573 155 Z " />
<glyph glyph-name="Euro" unicode="&#x20ac;" horiz-adv-x="679" d="M629 45 Q590 20 534 4.5 Q478 -11 423 -11 Q310 -11 230 57 Q150 125 118 239 L40 239 L40 340 L101 340 Q101 350 100.5 360.5 Q100 371 100 381 Q100 393 100.5 405 Q101 417 102 429 L40 429 L40 530 L121 530 Q154 641 236 707.5 Q318 774 432 774 Q486 774 539 760 Q592 746 624 722 L624 605 Q582 634 535 649.5 Q488 665 443 665 Q374 665 323.5 629.5 Q273 594 247 530 L544 530 L544 429 L223 429 Q222 418 221.5 406 Q221 394 221 382 Q221 371 221.5 360.5 Q222 350 223 340 L544 340 L544 239 L244 239 Q269 173 319 136 Q369 99 437 99 Q484 99 536.5 116 Q589 133 629 162 L629 45 Z " />
<glyph glyph-name="florin" unicode="&#x192;" horiz-adv-x="378" d="M204 8 Q194 -121 131.5 -178 Q69 -235 -56 -235 L-70 -235 L-70 -134 Q15 -134 49.5 -103 Q84 -72 89 -2 L113 347 L19 347 L19 442 L119 442 L125 528 Q133 645 185.5 707.5 Q238 770 330 770 Q347 770 366 767 Q385 764 398 759 L398 649 Q387 656 369 661 Q351 666 334 666 Q289 666 267 634 Q245 602 240 530 L234 442 L358 442 L358 347 L227 347 L204 8 Z " />
<glyph glyph-name="numbersign" unicode="&#x23;" horiz-adv-x="786" d="M366 0 L425 210 L267 210 L208 0 L96 0 L155 210 L60 210 L60 311 L183 311 L221 444 L132 444 L132 545 L249 545 L310 763 L422 763 L361 545 L519 545 L580 763 L692 763 L631 545 L726 545 L726 444 L603 444 L565 311 L654 311 L654 210 L537 210 L478 0 L366 0 Z M295 311 L453 311 L491 444 L333 444 L295 311 Z " />
<glyph glyph-name="zeroinferior" unicode="&#x2080;" horiz-adv-x="530" d="M473 21 Q473 -102 421 -166.5 Q369 -231 268 -231 Q167 -231 115 -166.5 Q63 -102 63 21 Q63 144 115 208.5 Q167 273 268 273 Q369 273 421 208.5 Q473 144 473 21 Z M367 21 Q367 103 342.5 142 Q318 181 268 181 Q218 181 193.5 142 Q169 103 169 21 Q169 -61 193.5 -100 Q218 -139 268 -139 Q318 -139 342.5 -100 Q367 -61 367 21 Z " />
<glyph glyph-name="oneinferior" unicode="&#x2081;" horiz-adv-x="406" d="M366 -135 L366 -224 L54 -224 L54 -135 L160 -135 L160 121 L50 121 L50 199 Q64 199 76 200.5 Q88 202 98 204 Q111 208 121 213 Q131 218 139 225 Q150 234 155 244.5 Q160 255 160 266 L260 266 L260 -135 L366 -135 Z " />
<glyph glyph-name="twoinferior" unicode="&#x2082;" horiz-adv-x="443" d="M383 -138 L383 -224 L50 -224 L50 -128 Q62 -117 109 -75.5 Q156 -34 178 -12 Q233 38 254 68.5 Q275 99 275 125 Q275 154 252.5 170 Q230 186 190 186 Q155 186 120 175.5 Q85 165 58 146 L58 239 Q87 255 125.5 264.5 Q164 274 203 274 Q285 274 330 236 Q375 198 375 127 Q375 77 333.5 22.5 Q292 -32 170 -136 L172 -138 L383 -138 Z " />
<glyph glyph-name="threeinferior" unicode="&#x2083;" horiz-adv-x="433" d="M396 -82 Q396 -150 340.5 -190.5 Q285 -231 192 -231 Q151 -231 118.5 -225 Q86 -219 63 -208 L63 -111 Q92 -126 125 -133.5 Q158 -141 195 -141 Q241 -141 267.5 -124 Q294 -107 294 -78 Q294 -48 266 -33.5 Q238 -19 172 -19 L116 -19 L116 70 L172 70 Q222 70 254 86.5 Q286 103 286 131 Q286 157 264.5 170 Q243 183 202 183 Q185 183 168 180.5 Q151 178 134 173 Q115 167 99.5 160 Q84 153 72 145 L72 245 Q97 258 135 265.5 Q173 273 215 273 Q296 273 342 238 Q388 203 388 144 Q388 103 366.5 72 Q345 41 309 30 L309 28 Q349 18 372.5 -11.5 Q396 -41 396 -82 Z " />
<glyph glyph-name="fourinferior" unicode="&#x2084;" horiz-adv-x="490" d="M271 -224 L271 -115 L37 -115 L37 -33 L251 266 L372 266 L372 -31 L432 -31 L432 -115 L372 -115 L372 -224 L271 -224 Z M141 -29 L143 -31 L271 -31 L271 87 Q271 100 271 113.5 Q271 127 272 148 L272 160 L270 160 Q264 149 251.5 128.5 Q239 108 226 87 L141 -29 Z " />
<glyph glyph-name="fiveinferior" unicode="&#x2085;" horiz-adv-x="457" d="M403 -65 Q403 -141 347 -186 Q291 -231 194 -231 Q152 -231 120 -225.5 Q88 -220 66 -210 L66 -111 Q95 -125 128 -132 Q161 -139 199 -139 Q245 -139 271.5 -120.5 Q298 -102 298 -70 Q298 -27 249 -9.5 Q200 8 77 -1 L77 266 L374 266 L374 177 L179 177 L179 81 Q287 88 345 50 Q403 12 403 -65 Z " />
<glyph glyph-name="sixinferior" unicode="&#x2086;" horiz-adv-x="493" d="M439 -62 Q439 -137 388 -184 Q337 -231 253 -231 Q160 -231 110.5 -169.5 Q61 -108 61 5 Q61 136 120 204.5 Q179 273 292 273 Q320 273 352 267.5 Q384 262 412 253 L412 153 Q378 168 349 175.5 Q320 183 294 183 Q230 183 196.5 151 Q163 119 163 58 Q187 73 215.5 80.5 Q244 88 274 88 Q351 88 395 47.5 Q439 7 439 -62 Z M338 -70 Q338 -33 315 -12.5 Q292 8 249 8 Q223 8 200.5 1 Q178 -6 164 -19 Q164 -79 187.5 -111.5 Q211 -144 256 -144 Q295 -144 316.5 -124.5 Q338 -105 338 -70 Z " />
<glyph glyph-name="seveninferior" unicode="&#x2087;" horiz-adv-x="413" d="M374 179 L174 -224 L71 -224 L272 171 L271 173 L31 173 L31 266 L374 266 L374 179 Z " />
<glyph glyph-name="eightinferior" unicode="&#x2088;" horiz-adv-x="511" d="M454 -82 Q454 -146 398 -188.5 Q342 -231 260 -231 Q171 -231 117 -193 Q63 -155 63 -93 Q63 -55 87 -22.5 Q111 10 156 32 Q120 52 102 77.5 Q84 103 84 134 Q84 195 133 234 Q182 273 260 273 Q335 273 382.5 237 Q430 201 430 146 Q430 114 409 85 Q388 56 355 41 Q406 18 430 -12.5 Q454 -43 454 -82 Z M329 131 Q329 157 309.5 173 Q290 189 255 189 Q224 189 204 174.5 Q184 160 184 138 Q184 117 207 101.5 Q230 86 279 73 Q304 85 316.5 99.5 Q329 114 329 131 Z M353 -86 Q353 -60 322 -39.5 Q291 -19 227 -3 Q198 -17 181 -37 Q164 -57 164 -78 Q164 -109 189.5 -127.5 Q215 -146 257 -146 Q301 -146 327 -130 Q353 -114 353 -86 Z " />
<glyph glyph-name="nineinferior" unicode="&#x2089;" horiz-adv-x="493" d="M335 -17 Q312 -32 284 -40 Q256 -48 224 -48 Q147 -48 103 -6.5 Q59 35 59 106 Q59 180 110 226.5 Q161 273 245 273 Q338 273 387.5 211.5 Q437 150 437 37 Q437 -94 378 -162.5 Q319 -231 206 -231 Q178 -231 146 -225.5 Q114 -220 86 -211 L86 -111 Q118 -126 147 -133.5 Q176 -141 201 -141 Q267 -141 300.5 -110 Q334 -79 335 -17 Z M335 61 Q335 121 311 153.5 Q287 186 242 186 Q203 186 181.5 166.5 Q160 147 160 112 Q160 75 183 54.5 Q206 34 249 34 Q275 34 297.5 41 Q320 48 335 61 Z " />
<glyph glyph-name="zerosuperior" unicode="&#x2070;" horiz-adv-x="530" d="M470 518 Q470 395 418 330.5 Q366 266 265 266 Q164 266 112 330.5 Q60 395 60 518 Q60 641 112 705.5 Q164 770 265 770 Q366 770 418 705.5 Q470 641 470 518 Z M364 518 Q364 600 339.5 639 Q315 678 265 678 Q215 678 190.5 639 Q166 600 166 518 Q166 436 190.5 397 Q215 358 265 358 Q315 358 339.5 397 Q364 436 364 518 Z " />
<glyph glyph-name="onesuperior" unicode="&#xb9;" horiz-adv-x="406" d="M366 362 L366 273 L54 273 L54 362 L160 362 L160 618 L50 618 L50 696 Q64 696 76 697.5 Q88 699 98 701 Q111 705 121 710 Q131 715 139 722 Q150 731 155 741.5 Q160 752 160 763 L260 763 L260 362 L366 362 Z " />
<glyph glyph-name="twosuperior" unicode="&#xb2;" horiz-adv-x="443" d="M383 359 L383 273 L50 273 L50 369 Q62 380 109 421.5 Q156 463 178 485 Q233 535 254 565.5 Q275 596 275 622 Q275 651 252.5 667 Q230 683 190 683 Q155 683 120 672.5 Q85 662 58 643 L58 736 Q87 752 125.5 761.5 Q164 771 203 771 Q285 771 330 733 Q375 695 375 624 Q375 574 333.5 519.5 Q292 465 170 361 L172 359 L383 359 Z " />
<glyph glyph-name="threesuperior" unicode="&#xb3;" horiz-adv-x="433" d="M393 415 Q393 347 337.5 306.5 Q282 266 189 266 Q148 266 115.5 272 Q83 278 60 289 L60 386 Q89 371 122 363.5 Q155 356 192 356 Q238 356 264.5 373 Q291 390 291 419 Q291 449 263 463.5 Q235 478 169 478 L113 478 L113 567 L169 567 Q219 567 251 583.5 Q283 600 283 628 Q283 654 261.5 667 Q240 680 199 680 Q182 680 165 677.5 Q148 675 131 670 Q112 664 96.5 657 Q81 650 69 642 L69 742 Q94 755 132 762.5 Q170 770 212 770 Q293 770 339 735 Q385 700 385 641 Q385 600 363.5 569 Q342 538 306 527 L306 525 Q346 515 369.5 485.5 Q393 456 393 415 Z " />
<glyph glyph-name="foursuperior" unicode="&#x2074;" horiz-adv-x="490" d="M274 273 L274 382 L40 382 L40 464 L254 763 L375 763 L375 466 L435 466 L435 382 L375 382 L375 273 L274 273 Z M144 468 L146 466 L274 466 L274 584 Q274 597 274 610.5 Q274 624 275 645 L275 657 L273 657 Q267 646 254.5 625.5 Q242 605 229 584 L144 468 Z " />
<glyph glyph-name="fivesuperior" unicode="&#x2075;" horiz-adv-x="457" d="M402 432 Q402 356 346 311 Q290 266 193 266 Q151 266 119 271.5 Q87 277 65 287 L65 386 Q94 372 127 365 Q160 358 198 358 Q244 358 270.5 376.5 Q297 395 297 427 Q297 470 248 487.5 Q199 505 76 496 L76 763 L373 763 L373 674 L178 674 L178 578 Q286 585 344 547 Q402 509 402 432 Z " />
<glyph glyph-name="sixsuperior" unicode="&#x2076;" horiz-adv-x="493" d="M438 435 Q438 360 387 313 Q336 266 252 266 Q159 266 109.5 327.5 Q60 389 60 502 Q60 633 119 701.5 Q178 770 291 770 Q319 770 351 764.5 Q383 759 411 750 L411 650 Q377 665 348 672.5 Q319 680 293 680 Q229 680 195.5 648 Q162 616 162 555 Q186 570 214.5 577.5 Q243 585 273 585 Q350 585 394 544.5 Q438 504 438 435 Z M337 427 Q337 464 314 484.5 Q291 505 248 505 Q222 505 199.5 498 Q177 491 163 478 Q163 418 186.5 385.5 Q210 353 255 353 Q294 353 315.5 372.5 Q337 392 337 427 Z " />
<glyph glyph-name="sevensuperior" unicode="&#x2077;" horiz-adv-x="413" d="M373 676 L173 273 L70 273 L271 668 L270 670 L30 670 L30 763 L373 763 L373 676 Z " />
<glyph glyph-name="eightsuperior" unicode="&#x2078;" horiz-adv-x="511" d="M451 415 Q451 351 395 308.5 Q339 266 257 266 Q168 266 114 304 Q60 342 60 404 Q60 442 84 474.5 Q108 507 153 529 Q117 549 99 574.5 Q81 600 81 631 Q81 692 130 731 Q179 770 257 770 Q332 770 379.5 734 Q427 698 427 643 Q427 611 406 582 Q385 553 352 538 Q403 515 427 484.5 Q451 454 451 415 Z M326 628 Q326 654 306.5 670 Q287 686 252 686 Q221 686 201 671.5 Q181 657 181 635 Q181 614 204 598.5 Q227 583 276 570 Q301 582 313.5 596.5 Q326 611 326 628 Z M350 411 Q350 437 319 457.5 Q288 478 224 494 Q195 480 178 460 Q161 440 161 419 Q161 388 186.5 369.5 Q212 351 254 351 Q298 351 324 367 Q350 383 350 411 Z " />
<glyph glyph-name="ninesuperior" unicode="&#x2079;" horiz-adv-x="493" d="M336 480 Q313 465 285 457 Q257 449 225 449 Q148 449 104 490.5 Q60 532 60 603 Q60 677 111 723.5 Q162 770 246 770 Q339 770 388.5 708.5 Q438 647 438 534 Q438 403 379 334.5 Q320 266 207 266 Q179 266 147 271.5 Q115 277 87 286 L87 386 Q119 371 148 363.5 Q177 356 202 356 Q268 356 301.5 387 Q335 418 336 480 Z M336 558 Q336 618 312 650.5 Q288 683 243 683 Q204 683 182.5 663.5 Q161 644 161 609 Q161 572 184 551.5 Q207 531 250 531 Q276 531 298.5 538 Q321 545 336 558 Z " />
<glyph glyph-name="percent" unicode="&#x25;" horiz-adv-x="1240" d="M493 518 Q493 395 441 330.5 Q389 266 288 266 Q187 266 135 330.5 Q83 395 83 518 Q83 641 135 705.5 Q187 770 288 770 Q389 770 441 705.5 Q493 641 493 518 Z M833 763 L519 0 L407 0 L721 763 L833 763 Z M387 518 Q387 600 362.5 639 Q338 678 288 678 Q238 678 213.5 639 Q189 600 189 518 Q189 436 213.5 397 Q238 358 288 358 Q338 358 362.5 397 Q387 436 387 518 Z M1163 241 Q1163 118 1111 53.5 Q1059 -11 958 -11 Q857 -11 805 53.5 Q753 118 753 241 Q753 364 805 428.5 Q857 493 958 493 Q1059 493 1111 428.5 Q1163 364 1163 241 Z M1057 241 Q1057 323 1032.5 362 Q1008 401 958 401 Q908 401 883.5 362 Q859 323 859 241 Q859 159 883.5 120 Q908 81 958 81 Q1008 81 1032.5 120 Q1057 159 1057 241 Z " />
<glyph glyph-name="perthousand" unicode="&#x2030;" horiz-adv-x="1721" d="M490 519 Q490 396 438 331.5 Q386 267 285 267 Q184 267 132 331.5 Q80 396 80 519 Q80 642 132 706.5 Q184 771 285 771 Q386 771 438 706.5 Q490 642 490 519 Z M830 764 L516 1 L404 1 L718 764 L830 764 Z M384 519 Q384 601 359.5 640 Q335 679 285 679 Q235 679 210.5 640 Q186 601 186 519 Q186 437 210.5 398 Q235 359 285 359 Q335 359 359.5 398 Q384 437 384 519 Z M1160 242 Q1160 119 1108 54.5 Q1056 -10 955 -10 Q854 -10 802 54.5 Q750 119 750 242 Q750 365 802 429.5 Q854 494 955 494 Q1056 494 1108 429.5 Q1160 365 1160 242 Z M1641 241 Q1641 118 1589 53.5 Q1537 -11 1436 -11 Q1335 -11 1283 53.5 Q1231 118 1231 241 Q1231 364 1283 428.5 Q1335 493 1436 493 Q1537 493 1589 428.5 Q1641 364 1641 241 Z M1054 242 Q1054 324 1029.5 363 Q1005 402 955 402 Q905 402 880.5 363 Q856 324 856 242 Q856 160 880.5 121 Q905 82 955 82 Q1005 82 1029.5 121 Q1054 160 1054 242 Z M1535 241 Q1535 323 1510.5 362 Q1486 401 1436 401 Q1386 401 1361.5 362 Q1337 323 1337 241 Q1337 159 1361.5 120 Q1386 81 1436 81 Q1486 81 1510.5 120 Q1535 159 1535 241 Z " />
<glyph glyph-name="onequarter" unicode="&#xbc;" horiz-adv-x="1121" d="M396 362 L396 273 L84 273 L84 362 L190 362 L190 618 L80 618 L80 696 Q94 696 106 697.5 Q118 699 128 701 Q141 705 151 710 Q161 715 169 722 Q180 731 185 741.5 Q190 752 190 763 L290 763 L290 362 L396 362 Z M791 763 L477 0 L365 0 L679 763 L791 763 Z M877 0 L877 109 L643 109 L643 191 L857 490 L978 490 L978 193 L1038 193 L1038 109 L978 109 L978 0 L877 0 Z M747 195 L749 193 L877 193 L877 311 Q877 324 877 337.5 Q877 351 878 372 L878 384 L876 384 Q870 373 857.5 352.5 Q845 332 832 311 L747 195 Z " />
<glyph glyph-name="onehalf" unicode="&#xbd;" horiz-adv-x="1154" d="M396 362 L396 273 L84 273 L84 362 L190 362 L190 618 L80 618 L80 696 Q94 696 106 697.5 Q118 699 128 701 Q141 705 151 710 Q161 715 169 722 Q180 731 185 741.5 Q190 752 190 763 L290 763 L290 362 L396 362 Z M790 763 L476 0 L364 0 L678 763 L790 763 Z M1074 86 L1074 0 L741 0 L741 96 Q753 107 800 148.5 Q847 190 869 212 Q924 262 945 292.5 Q966 323 966 349 Q966 378 943.5 394 Q921 410 881 410 Q846 410 811 399.5 Q776 389 749 370 L749 463 Q778 479 816.5 488.5 Q855 498 894 498 Q976 498 1021 460 Q1066 422 1066 351 Q1066 301 1024.5 246.5 Q983 192 861 88 L863 86 L1074 86 Z " />
<glyph glyph-name="threequarters" unicode="&#xbe;" horiz-adv-x="1107" d="M416 415 Q416 347 360.5 306.5 Q305 266 212 266 Q171 266 138.5 272 Q106 278 83 289 L83 386 Q112 371 145 363.5 Q178 356 215 356 Q261 356 287.5 373 Q314 390 314 419 Q314 449 286 463.5 Q258 478 192 478 L136 478 L136 567 L192 567 Q242 567 274 583.5 Q306 600 306 628 Q306 654 284.5 667 Q263 680 222 680 Q205 680 188 677.5 Q171 675 154 670 Q135 664 119.5 657 Q104 650 92 642 L92 742 Q117 755 155 762.5 Q193 770 235 770 Q316 770 362 735 Q408 700 408 641 Q408 600 386.5 569 Q365 538 329 527 L329 525 Q369 515 392.5 485.5 Q416 456 416 415 Z M777 763 L463 0 L351 0 L665 763 L777 763 Z M863 0 L863 109 L629 109 L629 191 L843 490 L964 490 L964 193 L1024 193 L1024 109 L964 109 L964 0 L863 0 Z M733 195 L735 193 L863 193 L863 311 Q863 324 863 337.5 Q863 351 864 372 L864 384 L862 384 Q856 373 843.5 352.5 Q831 332 818 311 L733 195 Z " />
<glyph glyph-name="plus" unicode="&#x2b;" horiz-adv-x="722" d="M622 222 L416 222 L416 10 L306 10 L306 222 L100 222 L100 322 L306 322 L306 534 L416 534 L416 322 L622 322 L622 222 Z " />
<glyph glyph-name="minus" unicode="&#x2212;" horiz-adv-x="724" d="M624 323 L624 222 L100 222 L100 323 L624 323 Z " />
<glyph glyph-name="plusminus" unicode="&#xb1;" horiz-adv-x="724" d="M624 111 L624 10 L100 10 L100 111 L306 111 L306 249 L100 249 L100 349 L306 349 L306 534 L416 534 L416 349 L622 349 L622 249 L416 249 L416 111 L624 111 Z " />
<glyph glyph-name="multiply" unicode="&#xd7;" horiz-adv-x="666" d="M566 114 L491 40 L333 198 L175 40 L100 114 L259 273 L101 430 L175 505 L333 347 L491 505 L565 430 L408 273 L566 114 Z " />
<glyph glyph-name="divide" unicode="&#xf7;" horiz-adv-x="724" d="M440 498 Q440 466 417 443 Q394 420 362 420 Q330 420 307 443 Q284 466 284 498 Q284 530 307 553 Q330 576 362 576 Q394 576 417 553 Q440 530 440 498 Z M624 323 L624 222 L100 222 L100 323 L624 323 Z M440 47 Q440 15 417 -8 Q394 -31 362 -31 Q330 -31 307 -8 Q284 15 284 47 Q284 79 307 102 Q330 125 362 125 Q394 125 417 102 Q440 79 440 47 Z " />
<glyph glyph-name="equal" unicode="&#x3d;" horiz-adv-x="724" d="M624 444 L624 343 L100 343 L100 444 L624 444 Z M624 202 L624 101 L100 101 L100 202 L624 202 Z " />
<glyph glyph-name="approxequal" unicode="&#x2248;" horiz-adv-x="724" d="M390 462 Q421 439 434.5 432 Q448 425 459 425 Q485 425 496.5 446 Q508 467 508 520 L615 520 Q621 420 583 363 Q545 306 470 306 Q439 306 407.5 319 Q376 332 325 370 Q294 394 280.5 400.5 Q267 407 257 407 Q230 407 219 386.5 Q208 366 208 312 L101 312 Q96 413 134 469.5 Q172 526 245 526 Q276 526 307.5 513 Q339 500 390 462 Z M390 175 Q421 152 434.5 145 Q448 138 459 138 Q485 138 496.5 159 Q508 180 508 233 L615 233 Q621 133 583 76 Q545 19 470 19 Q439 19 407.5 32 Q376 45 325 83 Q294 107 280.5 113.5 Q267 120 257 120 Q230 120 219 99.5 Q208 79 208 25 L101 25 Q96 126 134 182.5 Q172 239 245 239 Q276 239 307.5 226 Q339 213 390 175 Z " />
<glyph glyph-name="notequal" unicode="&#x2260;" horiz-adv-x="724" d="M624 101 L348 101 L307 0 L195 0 L236 101 L100 101 L100 202 L278 202 L335 343 L100 343 L100 444 L377 444 L418 545 L530 545 L489 444 L624 444 L624 343 L447 343 L390 202 L624 202 L624 101 Z " />
<glyph glyph-name="less" unicode="&#x3c;" horiz-adv-x="720" d="M620 112 L585 11 L100 224 L100 323 L585 535 L620 435 L237 273 L620 112 Z " />
<glyph glyph-name="greater" unicode="&#x3e;" horiz-adv-x="720" d="M620 224 L135 11 L100 112 L483 273 L100 435 L135 535 L620 323 L620 224 Z " />
<glyph glyph-name="lessequal" unicode="&#x2264;" horiz-adv-x="724" d="M620 252 L585 151 L100 314 L100 413 L585 575 L620 475 L275 363 L620 252 Z M624 101 L624 0 L100 0 L100 101 L624 101 Z " />
<glyph glyph-name="greaterequal" unicode="&#x2265;" horiz-adv-x="724" d="M624 314 L139 151 L104 252 L449 363 L104 475 L139 575 L624 413 L624 314 Z M100 0 L100 101 L624 101 L624 0 L100 0 Z " />
<glyph glyph-name="logicalnot" unicode="&#xac;" horiz-adv-x="724" d="M100 323 L624 323 L624 10 L514 10 L514 222 L100 222 L100 323 Z " />
<glyph glyph-name="fraction" unicode="&#x2044;" horiz-adv-x="506" d="M466 763 L152 0 L40 0 L354 763 L466 763 Z " />
<glyph glyph-name="radical" unicode="&#x221a;" horiz-adv-x="705" d="M60 291 L60 392 L265 392 L323 218 Q334 187 339 167 Q344 147 344 137 L347 137 Q348 148 353.5 168 Q359 188 368 218 L542 763 L665 763 L401 0 L289 0 L180 291 L60 291 Z " />
<glyph glyph-name="infinity" unicode="&#x221e;" horiz-adv-x="869" d="M619 509 Q710 509 769.5 445 Q829 381 829 279 Q829 172 770 106 Q711 40 619 40 Q556 40 507.5 68 Q459 96 426 150 Q402 101 354.5 70.5 Q307 40 250 40 Q159 40 99.5 104 Q40 168 40 270 Q40 377 99 443 Q158 509 251 509 Q313 509 361.5 481 Q410 453 443 399 Q467 448 514.5 478.5 Q562 509 619 509 Z M143 276 Q143 216 175.5 180.5 Q208 145 258 145 Q301 145 335 169.5 Q369 194 391 240 Q367 323 332 363.5 Q297 404 250 404 Q204 404 173.5 368.5 Q143 333 143 276 Z M726 273 Q726 333 693.5 368.5 Q661 404 610 404 Q568 404 534.5 379.5 Q501 355 479 309 Q503 226 538 185.5 Q573 145 620 145 Q665 145 695.5 180.5 Q726 216 726 273 Z " />
<glyph glyph-name="integral" unicode="&#x222b;" horiz-adv-x="427" d="M-10 -117 Q2 -124 20 -129 Q38 -134 55 -134 Q98 -134 117 -101.5 Q136 -69 136 6 L136 528 Q136 645 185 707.5 Q234 770 328 770 Q345 770 364 767 Q383 764 397 759 L397 653 Q385 660 367 665 Q349 670 332 670 Q289 670 270 637.5 Q251 605 251 530 L251 8 Q251 -109 202 -171.5 Q153 -234 59 -234 Q42 -234 23 -231 Q4 -228 -10 -223 L-10 -117 Z " />
<glyph glyph-name="partialdiff" unicode="&#x2202;" horiz-adv-x="612" d="M552 292 Q552 152 487 70.5 Q422 -11 306 -11 Q186 -11 123 62 Q60 135 60 272 Q60 399 119.5 477.5 Q179 556 279 556 Q305 556 328.5 550 Q352 544 375 531 Q334 590 270 638 Q206 686 119 725 L195 801 Q359 727 455.5 591 Q552 455 552 292 Z M174 272 Q174 179 206.5 135 Q239 91 305 91 Q372 91 405 135.5 Q438 180 438 272 Q438 364 405 409 Q372 454 305 454 Q239 454 206.5 410 Q174 366 174 272 Z " />
<glyph glyph-name="alpha" unicode="&#x3b1;" horiz-adv-x="622" d="M542 545 L488 272 L552 0 L449 0 L426 137 Q395 66 347.5 27.5 Q300 -11 243 -11 Q157 -11 103.5 67.5 Q50 146 50 265 Q50 391 107 473.5 Q164 556 253 556 Q313 556 358 516 Q403 476 425 406 L435 545 L542 545 Z M140 273 Q140 194 171 147.5 Q202 101 254 101 Q302 101 343 144.5 Q384 188 405 264 Q378 352 340 398 Q302 444 254 444 Q207 444 173.5 395 Q140 346 140 273 Z " />
<glyph glyph-name="beta" unicode="&#x3b2;" horiz-adv-x="605" d="M188 54 L211 -224 L90 -224 L90 542 Q90 666 151.5 734 Q213 802 323 802 Q419 802 477 745.5 Q535 689 535 597 Q535 542 510 494 Q485 446 443 419 Q496 393 525.5 342.5 Q555 292 555 224 Q555 121 493.5 55 Q432 -11 334 -11 Q292 -11 254 6 Q216 23 188 54 Z M319 690 Q251 690 218.5 653.5 Q186 617 186 540 L186 156 Q220 128 254.5 114.5 Q289 101 328 101 Q386 101 423 138 Q460 175 460 234 Q460 289 429 327.5 Q398 366 346 373 Q323 368 301 366 Q279 364 251 364 L251 467 Q272 467 294.5 465 Q317 463 346 458 Q388 466 414 500.5 Q440 535 440 581 Q440 633 408.5 661.5 Q377 690 319 690 Z " />
<glyph glyph-name="delta" unicode="&#x3b4;" horiz-adv-x="539" d="M488 244 Q488 137 422.5 63 Q357 -11 265 -11 Q174 -11 112 60.5 Q50 132 50 241 Q50 319 81 385.5 Q112 452 173 503 Q135 534 116.5 569 Q98 604 98 647 Q98 715 141 758.5 Q184 802 255 802 Q310 802 377.5 782 Q445 762 489 733 L458 645 Q404 667 353.5 679 Q303 691 262 691 Q223 691 206 683 Q189 675 189 656 Q189 632 220.5 600 Q252 568 323 517 Q416 449 452 388.5 Q488 328 488 244 Z M140 254 Q140 182 174 141.5 Q208 101 267 101 Q325 101 361.5 141.5 Q398 182 398 244 Q398 298 365 343.5 Q332 389 266 426 Q217 409 178.5 359 Q140 309 140 254 Z " />
<glyph glyph-name="epsilon" unicode="&#x3b5;" horiz-adv-x="510" d="M278 446 Q223 446 196.5 431.5 Q170 417 170 386 Q170 360 196.5 339 Q223 318 266 312 Q304 317 333 319 Q362 321 394 321 L394 218 Q356 217 326 219 Q296 221 265 227 Q211 218 185.5 202 Q160 186 160 160 Q160 129 190 111.5 Q220 94 275 94 Q317 94 350 101.5 Q383 109 415 127 L460 56 Q423 23 373 6 Q323 -11 265 -11 Q174 -11 117 29.5 Q60 70 60 132 Q60 181 86 215 Q112 249 170 273 Q116 299 93 329.5 Q70 360 70 407 Q70 473 128.5 514.5 Q187 556 281 556 Q332 556 378.5 539 Q425 522 457 491 L412 417 Q376 433 345.5 439.5 Q315 446 278 446 Z " />
<glyph glyph-name="theta" unicode="&#x3b8;" horiz-adv-x="551" d="M275 797 Q376 797 438.5 685 Q501 573 501 391 Q501 209 438.5 97 Q376 -15 275 -15 Q174 -15 112 97 Q50 209 50 391 Q50 573 112 685 Q174 797 275 797 Z M275 685 Q217 685 182 621.5 Q147 558 141 440 L410 440 Q404 558 369 621.5 Q334 685 275 685 Z M275 97 Q334 97 369 161.5 Q404 226 410 345 L141 345 Q147 226 181.5 161.5 Q216 97 275 97 Z " />
<glyph glyph-name="lambda" unicode="&#x3bb;" horiz-adv-x="522" d="M75 778 Q166 770 218.5 722.5 Q271 675 317 545 L512 0 L389 0 L283 337 Q272 373 267 393 Q262 413 263 418 L260 418 Q262 413 257 393 Q252 373 240 337 L133 0 L10 0 L205 545 Q194 604 160.5 636.5 Q127 669 69 677 Q57 678 48 678.5 Q39 679 31 679 L31 779 Q50 779 59 779 Q68 779 75 778 Z " />
<glyph glyph-name="mu.math" unicode="&#xb5;" horiz-adv-x="620" d="M90 545 L202 545 L202 200 Q202 139 220 114 Q238 89 281 89 Q319 89 360.5 105 Q402 121 418 143 L418 545 L530 545 L530 0 L418 0 L418 40 L415 43 Q377 16 336 2.5 Q295 -11 251 -11 Q238 -11 225.5 -10 Q213 -9 202 -6 L202 -224 L90 -224 L90 545 Z " />
<glyph glyph-name="nu" unicode="&#x3bd;" horiz-adv-x="522" d="M205 0 Q166 152 119.5 282 Q73 412 10 545 L133 545 Q174 457 212 343.5 Q250 230 271 127 L273 127 Q316 213 347.5 325.5 Q379 438 389 545 L512 545 Q488 409 430.5 249 Q373 89 317 0 L205 0 Z " />
<glyph glyph-name="pi" unicode="&#x3c0;" horiz-adv-x="683" d="M20 449 L20 545 L620 545 L620 449 L520 449 L520 223 Q520 146 533.5 118 Q547 90 583 90 Q594 90 605 92 Q616 94 643 104 L643 8 Q611 -4 594 -7.5 Q577 -11 557 -11 Q483 -11 445.5 32.5 Q408 76 408 161 L408 449 L232 449 L232 0 L120 0 L120 449 L20 449 Z " />
<glyph glyph-name="rho" unicode="&#x3c1;" horiz-adv-x="601" d="M188 54 L211 -224 L90 -224 L90 545 L187 545 L187 432 Q213 488 259 522 Q305 556 358 556 Q444 556 497.5 477.5 Q551 399 551 280 Q551 154 490 71.5 Q429 -11 334 -11 Q292 -11 254 6 Q216 23 188 54 Z M347 444 Q295 444 250.5 400.5 Q206 357 186 281 L186 158 Q213 130 249 115.5 Q285 101 328 101 Q383 101 422 150 Q461 199 461 272 Q461 351 430 397.5 Q399 444 347 444 Z " />
<glyph glyph-name="increment" unicode="&#x2206;" horiz-adv-x="762" d="M35 0 L35 12 L375 763 L387 763 L727 12 L727 0 L35 0 Z M566 103 L380 537 L198 103 L566 103 Z " />
<glyph glyph-name="product" unicode="&#x220f;" horiz-adv-x="762" d="M506 -78 L506 662 L257 662 L257 -78 L145 -78 L145 662 L50 662 L50 763 L722 763 L722 662 L618 662 L618 -78 L506 -78 Z " />
<glyph glyph-name="summation" unicode="&#x2211;" horiz-adv-x="614" d="M554 662 L215 662 L475 347 L215 23 L554 23 L554 -78 L60 -78 L60 -2 L340 347 L60 687 L60 763 L554 763 L554 662 Z " />
<glyph glyph-name="Omega" unicode="&#x3a9;" horiz-adv-x="788" d="M206 109 Q139 166 99.5 252.5 Q60 339 60 431 Q60 580 153 676.5 Q246 773 394 773 Q542 773 635 676.5 Q728 580 728 431 Q728 339 688.5 252.5 Q649 166 582 109 L713 109 L713 0 L461 0 L461 109 Q537 189 572 265 Q607 341 607 424 Q607 534 551 598 Q495 662 394 664 Q293 662 237 598 Q181 534 181 424 Q181 341 216 265 Q251 189 327 109 L327 0 L75 0 L75 109 L206 109 Z " />
<glyph glyph-name="lozenge" unicode="&#x25ca;" horiz-adv-x="585" d="M555 382 L555 380 L295 -11 L291 -11 L30 380 L30 382 L291 774 L295 774 L555 382 Z M293 168 L427 381 L293 594 L158 381 L293 168 Z " />
<glyph glyph-name="whitesquarebracketleft" unicode="&#x301a;" horiz-adv-x="512" d="M70 -224 L70 791 L492 791 L492 697 L393 697 L393 -130 L492 -130 L492 -224 L70 -224 Z M281 -130 L281 697 L182 697 L182 -130 L281 -130 Z " />
<glyph glyph-name="whitesquarebracketright" unicode="&#x301b;" horiz-adv-x="512" d="M20 697 L20 791 L442 791 L442 -224 L20 -224 L20 -130 L119 -130 L119 697 L20 697 Z M231 697 L231 -130 L330 -130 L330 697 L231 697 Z " />
<glyph glyph-name="parendblleft" unicode="&#x2e28;" horiz-adv-x="556" d="M182 284 Q182 152 219 32 Q256 -88 325 -180 L248 -235 Q162 -134 116 0.5 Q70 135 70 283 Q70 431 116 566 Q162 701 248 803 L325 748 Q256 657 219 536.5 Q182 416 182 284 Z M393 284 Q393 152 430 32 Q467 -88 536 -180 L459 -235 Q373 -134 327 0.5 Q281 135 281 283 Q281 431 327 566 Q373 701 459 803 L536 748 Q467 657 430 536.5 Q393 416 393 284 Z " />
<glyph glyph-name="parendblright" unicode="&#x2e29;" horiz-adv-x="556" d="M163 283 Q163 415 126 535 Q89 655 20 747 L97 802 Q183 701 229 566.5 Q275 432 275 284 Q275 136 229 1 Q183 -134 97 -236 L20 -181 Q89 -90 126 30.5 Q163 151 163 283 Z M374 283 Q374 415 337 535 Q300 655 231 747 L308 802 Q394 701 440 566.5 Q486 432 486 284 Q486 136 440 1 Q394 -134 308 -236 L231 -181 Q300 -90 337 30.5 Q374 151 374 283 Z " />
<glyph glyph-name="emptyset" unicode="&#x2205;" horiz-adv-x="865" d="M432 -11 Q377 -11 328 0.5 Q279 12 238 34 L198 -20 L120 40 L159 92 Q107 144 78.5 218 Q50 292 50 381 Q50 556 154.5 665 Q259 774 432 774 Q487 774 536.5 762 Q586 750 627 728 L667 783 L745 723 L706 670 Q758 618 786.5 544 Q815 470 815 381 Q815 207 710.5 98 Q606 -11 432 -11 Z M171 381 Q171 324 186.5 275 Q202 226 230 190 L559 636 Q531 650 499.5 657.5 Q468 665 432 665 Q313 665 242 586.5 Q171 508 171 381 Z M694 381 Q694 438 678.5 487 Q663 536 634 573 L306 127 Q333 113 365 105.5 Q397 98 432 98 Q551 98 622.5 176.5 Q694 255 694 381 Z " />
<glyph glyph-name="Ndblstruck" unicode="&#x2115;" horiz-adv-x="807" d="M596 763 L717 763 L717 0 L562 0 L268 298 Q256 312 241.5 330 Q227 348 211 369 L208 369 Q210 346 210.5 327 Q211 308 211 293 L211 0 L90 0 L90 763 L245 763 L539 465 Q552 452 566 434 Q580 416 596 394 L599 394 Q598 418 597 437 Q596 456 596 470 L596 763 Z M599 121 L603 121 Q600 143 598 170 Q596 197 596 232 L234 605 Q227 612 222 618 Q217 624 207 645 L203 645 Q207 622 209 595 Q211 568 211 531 L573 158 Q583 148 588.5 140.5 Q594 133 599 121 Z " />
<glyph glyph-name="Zdblstruck" unicode="&#x2124;" horiz-adv-x="735" d="M70 654 L70 763 L665 763 L665 659 L416 112 L419 109 L675 109 L675 0 L60 0 L60 105 L309 651 L306 654 L70 654 Z M202 109 L277 109 L526 651 L523 654 L448 654 L199 112 L202 109 Z " />
<glyph glyph-name="Rdblstruck" unicode="&#x211d;" horiz-adv-x="898" d="M211 654 L211 0 L90 0 L90 763 L502 763 Q649 763 730 702 Q811 641 811 530 Q811 468 780.5 413.5 Q750 359 701 330 L868 0 L727 0 L587 301 Q577 298 564 297 Q551 296 521 296 L650 0 L519 0 L405 292 L392 292 L392 0 L281 0 L281 654 L211 654 Z M700 524 Q700 588 663.5 626.5 Q627 665 567 665 Q595 642 612.5 605.5 Q630 569 630 530 Q630 483 609.5 445 Q589 407 553 387 Q619 389 659.5 426 Q700 463 700 524 Z M519 527 Q519 594 484.5 630 Q450 666 392 664 L392 389 Q455 391 487 426 Q519 461 519 527 Z " />
<glyph glyph-name="union" unicode="&#x222a;" horiz-adv-x="802" d="M712 370 Q712 182 633.5 85.5 Q555 -11 401 -11 Q245 -11 167.5 83 Q90 177 90 370 L90 663 L200 663 L200 380 Q200 233 249.5 166 Q299 99 402 99 Q505 99 553.5 165.5 Q602 232 602 380 L602 663 L712 663 L712 370 Z " />
<glyph glyph-name="unionarray" unicode="&#x22c3;" horiz-adv-x="802" d="M712 370 Q712 182 633.5 85.5 Q555 -11 401 -11 Q245 -11 167.5 83 Q90 177 90 370 L90 663 L200 663 L200 380 Q200 233 249.5 166 Q299 99 402 99 Q505 99 553.5 165.5 Q602 232 602 380 L602 663 L712 663 L712 370 Z " />
<glyph glyph-name="propersubset" unicode="&#x2282;" horiz-adv-x="794" d="M441 70 Q253 70 156.5 148.5 Q60 227 60 381 Q60 537 154 614.5 Q248 692 441 692 L734 692 L734 582 L451 582 Q304 582 237 532.5 Q170 483 170 380 Q170 277 236.5 228.5 Q303 180 451 180 L734 180 L734 70 L441 70 Z " />
<glyph glyph-name="element" unicode="&#x2208;" horiz-adv-x="794" d="M734 180 L734 70 L441 70 Q253 70 156.5 148.5 Q60 227 60 381 Q60 537 154 614.5 Q248 692 441 692 L734 692 L734 582 L451 582 Q324 582 257 545 Q190 508 175 432 L694 432 L694 331 L174 331 Q188 254 255 217 Q322 180 451 180 L734 180 Z " />
<glyph glyph-name="notelement" unicode="&#x2209;" horiz-adv-x="794" d="M441 70 Q424 70 408 70.5 Q392 71 377 72 L347 0 L235 0 L272 90 Q167 120 113.5 193 Q60 266 60 381 Q60 537 154 614.5 Q248 692 441 692 L520 692 L549 763 L661 763 L632 692 L734 692 L734 582 L587 582 L525 432 L694 432 L694 331 L483 331 L421 181 Q428 180 435.5 180 Q443 180 451 180 L734 180 L734 70 L441 70 Z M451 582 Q324 582 257 545 Q190 508 175 432 L413 432 L475 582 L451 582 Z M174 331 Q184 278 218.5 243.5 Q253 209 315 194 L371 331 L174 331 Z " />
<glyph glyph-name="propersuperset" unicode="&#x2283;" horiz-adv-x="794" d="M734 381 Q734 227 637.5 148.5 Q541 70 353 70 L60 70 L60 180 L343 180 Q491 180 557.5 228.5 Q624 277 624 380 Q624 483 557 532.5 Q490 582 343 582 L60 582 L60 692 L353 692 Q546 692 640 614.5 Q734 537 734 381 Z " />
<glyph glyph-name="suchthat" unicode="&#x220b;" horiz-adv-x="794" d="M734 381 Q734 225 640 147.5 Q546 70 353 70 L60 70 L60 180 L343 180 Q470 180 537 217 Q604 254 619 330 L100 330 L100 431 L620 431 Q606 508 539 545 Q472 582 343 582 L60 582 L60 692 L353 692 Q541 692 637.5 613.5 Q734 535 734 381 Z " />
<glyph glyph-name="notcontains" unicode="&#x220c;" horiz-adv-x="794" d="M353 70 L274 70 L245 0 L133 0 L162 70 L60 70 L60 180 L207 180 L269 331 L100 331 L100 432 L311 432 L372 582 Q365 582 358 582 Q351 582 343 582 L60 582 L60 692 L353 692 Q370 692 386 691.5 Q402 691 417 690 L447 763 L559 763 L521 672 Q627 642 680.5 569 Q734 496 734 381 Q734 225 640 147.5 Q546 70 353 70 Z M423 432 L620 432 Q610 485 575.5 519 Q541 553 479 568 L423 432 Z M343 180 Q471 180 538 217 Q605 254 620 331 L381 331 L319 180 L343 180 Z " />
<glyph glyph-name="intersection" unicode="&#x2229;" horiz-adv-x="802" d="M90 293 Q90 481 168.5 577.5 Q247 674 401 674 Q557 674 634.5 580 Q712 486 712 293 L712 0 L602 0 L602 283 Q602 430 552.5 497 Q503 564 400 564 Q297 564 248.5 497.5 Q200 431 200 283 L200 0 L90 0 L90 293 Z " />
<glyph glyph-name="intersectionarray" unicode="&#x22c2;" horiz-adv-x="802" d="M90 293 Q90 481 168.5 577.5 Q247 674 401 674 Q557 674 634.5 580 Q712 486 712 293 L712 0 L602 0 L602 283 Q602 430 552.5 497 Q503 564 400 564 Q297 564 248.5 497.5 Q200 431 200 283 L200 0 L90 0 L90 293 Z " />
<glyph glyph-name="bulletoperator" unicode="&#x2219;" horiz-adv-x="256" d="M206 273 Q206 241 183 218 Q160 195 128 195 Q96 195 73 218 Q50 241 50 273 Q50 305 73 328 Q96 351 128 351 Q160 351 183 328 Q206 305 206 273 Z " />
<glyph glyph-name="arrowleft" unicode="&#x2190;" horiz-adv-x="1020" d="M970 222 L347 222 L347 92 L0 272 L0 273 L347 453 L347 323 L970 323 L970 222 Z " />
<glyph glyph-name="arrowup" unicode="&#x2191;" horiz-adv-x="361" d="M130 -213 L130 410 L0 410 L180 757 L181 757 L361 410 L231 410 L231 -213 L130 -213 Z " />
<glyph glyph-name="arrowright" unicode="&#x2192;" horiz-adv-x="1020" d="M50 323 L673 323 L673 453 L1020 273 L1020 272 L673 92 L673 222 L50 222 L50 323 Z " />
<glyph glyph-name="arrowdown" unicode="&#x2193;" horiz-adv-x="361" d="M231 757 L231 134 L361 134 L181 -213 L180 -213 L0 134 L130 134 L130 757 L231 757 Z " />
<glyph glyph-name="arrowleftfrombar" unicode="&#x21a4;" horiz-adv-x="1020" d="M327 456 L184 323 L869 323 L869 453 L970 453 L970 92 L869 92 L869 222 L185 222 L327 89 L255 17 L0 272 L0 273 L255 528 L327 456 Z " />
<glyph glyph-name="arrowrightfrombar" unicode="&#x21a6;" horiz-adv-x="1020" d="M693 89 L836 222 L151 222 L151 92 L50 92 L50 453 L151 453 L151 323 L835 323 L693 456 L765 528 L1020 273 L1020 272 L765 17 L693 89 Z " />
<glyph glyph-name="arrowupfrombar" unicode="&#x21a5;" horiz-adv-x="511" d="M439 430 L306 573 L306 -112 L436 -112 L436 -213 L75 -213 L75 -112 L205 -112 L205 572 L72 430 L0 502 L255 757 L256 757 L511 502 L439 430 Z " />
<glyph glyph-name="arrowdownfrombar" unicode="&#x21a7;" horiz-adv-x="511" d="M72 114 L205 -29 L205 656 L75 656 L75 757 L436 757 L436 656 L306 656 L306 -28 L439 114 L511 42 L256 -213 L255 -213 L0 42 L72 114 Z " />
<glyph glyph-name="arrowdblleft" unicode="&#x21d0;" horiz-adv-x="1120" d="M428 557 L295 424 L1070 424 L1070 323 L193 323 L143 273 L143 272 L193 222 L1070 222 L1070 121 L295 121 L428 -12 L356 -84 L0 272 L0 273 L356 629 L428 557 Z " />
<glyph glyph-name="arrowdblright" unicode="&#x21d2;" horiz-adv-x="1120" d="M692 -12 L825 121 L50 121 L50 222 L927 222 L977 272 L977 273 L927 323 L50 323 L50 424 L825 424 L692 557 L764 629 L1120 273 L1120 272 L764 -84 L692 -12 Z " />
<glyph glyph-name="arrowdblboth" unicode="&#x21d4;" horiz-adv-x="1439" d="M428 557 L295 424 L1144 424 L1011 557 L1083 629 L1439 273 L1439 272 L1083 -84 L1011 -12 L1144 121 L295 121 L428 -12 L356 -84 L0 272 L0 273 L356 629 L428 557 Z M1246 222 L1296 272 L1296 273 L1246 323 L193 323 L143 273 L143 272 L193 222 L1246 222 Z " />
<glyph glyph-name="dblarrowleftrightstroke" unicode="&#x21ce;" horiz-adv-x="1439" d="M470 -144 L594 121 L295 121 L428 -12 L356 -84 L0 272 L0 273 L356 629 L428 557 L295 424 L735 424 L879 732 L971 689 L847 424 L1144 424 L1011 557 L1083 629 L1439 273 L1439 272 L1083 -84 L1011 -12 L1144 121 L706 121 L562 -187 L470 -144 Z M193 323 L143 273 L143 272 L193 222 L641 222 L688 323 L193 323 Z M1246 222 L1296 272 L1296 273 L1246 323 L800 323 L753 222 L1246 222 Z " />
<glyph glyph-name="dblarrowleftstroke" unicode="&#x21cd;" horiz-adv-x="1120" d="M519 -144 L643 121 L295 121 L428 -12 L356 -84 L0 272 L0 273 L356 629 L428 557 L295 424 L784 424 L928 732 L1020 689 L896 424 L1070 424 L1070 323 L849 323 L802 222 L1070 222 L1070 121 L755 121 L611 -187 L519 -144 Z M193 323 L143 273 L143 272 L193 222 L690 222 L737 323 L193 323 Z " />
<glyph glyph-name="dblarrowrightstroke" unicode="&#x21cf;" horiz-adv-x="1120" d="M100 -144 L224 121 L50 121 L50 222 L271 222 L318 323 L50 323 L50 424 L365 424 L509 732 L601 689 L477 424 L825 424 L692 557 L764 629 L1120 273 L1120 272 L764 -84 L692 -12 L825 121 L336 121 L192 -187 L100 -144 Z M927 222 L977 272 L977 273 L927 323 L430 323 L383 222 L927 222 Z " />
<glyph glyph-name="currency" unicode="&#xa4;" horiz-adv-x="664" d="M604 74 L529 0 L426 103 Q406 92 382 86.5 Q358 81 332 81 Q305 81 281 86.5 Q257 92 237 103 L135 0 L60 74 L163 177 Q152 197 146.5 221 Q141 245 141 272 Q141 299 146.5 323 Q152 347 162 367 L60 470 L134 545 L237 442 Q258 452 281.5 457.5 Q305 463 332 463 Q358 463 382 457.5 Q406 452 426 441 L530 545 L604 470 L501 367 Q512 347 517.5 323 Q523 299 523 272 Q523 246 517.5 222 Q512 198 501 178 L604 74 Z M421 272 Q421 313 396.5 338 Q372 363 332 363 Q292 363 267.5 338 Q243 313 243 272 Q243 232 267.5 207 Q292 182 332 182 Q372 182 396.5 207 Q421 232 421 272 Z " />
<glyph glyph-name="underscore" unicode="&#x5f;" horiz-adv-x="504" d="M504 -123 L504 -224 L0 -224 L0 -123 L504 -123 Z " />
<glyph glyph-name="hyphen" unicode="&#x2d;" horiz-adv-x="436" d="M386 323 L386 222 L50 222 L50 323 L386 323 Z " />
<glyph glyph-name="hyphensoft" unicode="&#xad;" horiz-adv-x="436" d="M386 323 L386 222 L50 222 L50 323 L386 323 Z " />
<glyph glyph-name="endash" unicode="&#x2013;" horiz-adv-x="604" d="M554 323 L554 222 L50 222 L50 323 L554 323 Z " />
<glyph glyph-name="emdash" unicode="&#x2014;" horiz-adv-x="772" d="M722 323 L722 222 L50 222 L50 323 L722 323 Z " />
<glyph glyph-name="parenleft" unicode="&#x28;" horiz-adv-x="345" d="M182 284 Q182 152 219 32 Q256 -88 325 -180 L248 -235 Q162 -134 116 0.5 Q70 135 70 283 Q70 431 116 566 Q162 701 248 803 L325 748 Q256 657 219 536.5 Q182 416 182 284 Z " />
<glyph glyph-name="bracketleft" unicode="&#x5b;" horiz-adv-x="301" d="M281 697 L182 697 L182 -130 L281 -130 L281 -224 L70 -224 L70 791 L281 791 L281 697 Z " />
<glyph glyph-name="braceleft" unicode="&#x7b;" horiz-adv-x="333" d="M104 50 Q119 90 123.5 110 Q128 130 128 146 Q128 182 112.5 210.5 Q97 239 70 247 L70 319 Q97 327 112.5 355.5 Q128 384 128 420 Q128 436 123.5 456 Q119 476 104 516 Q87 561 82 583.5 Q77 606 77 625 Q77 716 136 759 Q195 802 305 790 L313 696 Q244 703 216.5 685.5 Q189 668 189 621 Q189 605 193.5 584.5 Q198 564 214 522 Q230 477 235 455 Q240 433 240 415 Q240 372 224.5 338 Q209 304 179 283 Q209 262 224.5 228 Q240 194 240 151 Q240 133 235 111 Q230 89 214 44 Q198 2 193.5 -18.5 Q189 -39 189 -55 Q189 -101 214 -118.5 Q239 -136 305 -130 L305 -224 Q195 -236 136 -193 Q77 -150 77 -59 Q77 -40 82 -17.5 Q87 5 104 50 Z " />
<glyph glyph-name="parenright" unicode="&#x29;" horiz-adv-x="345" d="M163 283 Q163 415 126 535 Q89 655 20 747 L97 802 Q183 701 229 566.5 Q275 432 275 284 Q275 136 229 1 Q183 -134 97 -236 L20 -181 Q89 -90 126 30.5 Q163 151 163 283 Z " />
<glyph glyph-name="bracketright" unicode="&#x5d;" horiz-adv-x="301" d="M119 697 L20 697 L20 791 L231 791 L231 -224 L20 -224 L20 -130 L119 -130 L119 697 Z " />
<glyph glyph-name="braceright" unicode="&#x7d;" horiz-adv-x="333" d="M229 517 Q214 477 209.5 457 Q205 437 205 421 Q205 385 220.5 356.5 Q236 328 263 320 L263 248 Q236 240 220.5 211.5 Q205 183 205 147 Q205 131 209.5 111 Q214 91 229 51 Q246 6 251 -16.5 Q256 -39 256 -58 Q256 -149 197 -192 Q138 -235 28 -223 L20 -129 Q89 -136 116.5 -118.5 Q144 -101 144 -54 Q144 -38 139.5 -17.5 Q135 3 119 45 Q103 90 98 112 Q93 134 93 152 Q93 195 108.5 229 Q124 263 154 284 Q124 305 108.5 339 Q93 373 93 416 Q93 434 98 456 Q103 478 119 523 Q135 565 139.5 585.5 Q144 606 144 622 Q144 668 119 685.5 Q94 703 28 697 L28 791 Q138 803 197 760 Q256 717 256 626 Q256 607 251 584.5 Q246 562 229 517 Z " />
<glyph glyph-name="guilsinglleft" unicode="&#x2039;" horiz-adv-x="389" d="M348 82 L295 0 L40 234 L40 311 L295 545 L349 466 L146 273 L348 82 Z " />
<glyph glyph-name="guillemotleft" unicode="&#xab;" horiz-adv-x="698" d="M348 82 L295 0 L40 234 L40 311 L295 545 L349 466 L146 273 L348 82 Z M657 82 L604 0 L349 234 L349 311 L604 545 L658 466 L455 273 L657 82 Z " />
<glyph glyph-name="guilsinglright" unicode="&#x203a;" horiz-adv-x="389" d="M41 463 L94 545 L349 311 L349 234 L94 0 L40 79 L243 272 L41 463 Z " />
<glyph glyph-name="guillemotright" unicode="&#xbb;" horiz-adv-x="698" d="M350 463 L403 545 L658 311 L658 234 L403 0 L349 79 L552 272 L350 463 Z M41 463 L94 545 L349 311 L349 234 L94 0 L40 79 L243 272 L41 463 Z " />
<glyph glyph-name="quoteleft" unicode="&#x2018;" horiz-adv-x="226" d="M126 474 L30 747 L153 769 L206 497 L126 474 Z " />
<glyph glyph-name="quotedblleft" unicode="&#x201c;" horiz-adv-x="434" d="M126 474 L30 747 L153 769 L206 497 L126 474 Z M334 474 L238 747 L361 769 L414 497 L334 474 Z " />
<glyph glyph-name="quoteright" unicode="&#x2019;" horiz-adv-x="226" d="M206 747 L110 474 L30 497 L83 769 L206 747 Z " />
<glyph glyph-name="quotesingle" unicode="&#x27;" horiz-adv-x="226" d="M196 747 L100 474 L20 497 L73 769 L196 747 Z " />
<glyph glyph-name="quotedbl" unicode="&#x22;" horiz-adv-x="434" d="M196 747 L100 474 L20 497 L73 769 L196 747 Z M404 747 L308 474 L228 497 L281 769 L404 747 Z " />
<glyph glyph-name="quotedblright" unicode="&#x201d;" horiz-adv-x="434" d="M196 747 L100 474 L20 497 L73 769 L196 747 Z M404 747 L308 474 L228 497 L281 769 L404 747 Z " />
<glyph glyph-name="quotesinglbase" unicode="&#x201a;" horiz-adv-x="252" d="M227 86 L85 -165 L10 -128 L109 130 L227 86 Z " />
<glyph glyph-name="quotedblbase" unicode="&#x201e;" horiz-adv-x="467" d="M227 86 L85 -165 L10 -128 L109 130 L227 86 Z M442 86 L300 -165 L225 -128 L324 130 L442 86 Z " />
<glyph glyph-name="period" unicode="&#x2e;" horiz-adv-x="256" d="M206 68 Q206 36 183 13 Q160 -10 128 -10 Q96 -10 73 13 Q50 36 50 68 Q50 100 73 123 Q96 146 128 146 Q160 146 183 123 Q206 100 206 68 Z " />
<glyph glyph-name="ellipsis" unicode="&#x2026;" horiz-adv-x="868" d="M818 68 Q818 36 795 13 Q772 -10 740 -10 Q708 -10 685 13 Q662 36 662 68 Q662 100 685 123 Q708 146 740 146 Q772 146 795 123 Q818 100 818 68 Z M512 68 Q512 36 489 13 Q466 -10 434 -10 Q402 -10 379 13 Q356 36 356 68 Q356 100 379 123 Q402 146 434 146 Q466 146 489 123 Q512 100 512 68 Z M206 68 Q206 36 183 13 Q160 -10 128 -10 Q96 -10 73 13 Q50 36 50 68 Q50 100 73 123 Q96 146 128 146 Q160 146 183 123 Q206 100 206 68 Z " />
<glyph glyph-name="middot" unicode="&#xb7;" horiz-adv-x="256" d="M206 273 Q206 241 183 218 Q160 195 128 195 Q96 195 73 218 Q50 241 50 273 Q50 305 73 328 Q96 351 128 351 Q160 351 183 328 Q206 305 206 273 Z " />
<glyph glyph-name="bullet" unicode="&#x2022;" horiz-adv-x="338" d="M169 392 Q219 392 253.5 357.5 Q288 323 288 273 Q288 224 253.5 189 Q219 154 169 154 Q120 154 85 189 Q50 224 50 273 Q50 323 85 357.5 Q120 392 169 392 Z " />
<glyph glyph-name="comma" unicode="&#x2c;" horiz-adv-x="252" d="M227 86 L85 -165 L10 -128 L109 130 L227 86 Z " />
<glyph glyph-name="colon" unicode="&#x3a;" horiz-adv-x="256" d="M206 478 Q206 446 183 423 Q160 400 128 400 Q96 400 73 423 Q50 446 50 478 Q50 510 73 533 Q96 556 128 556 Q160 556 183 533 Q206 510 206 478 Z M206 67 Q206 35 183 12 Q160 -11 128 -11 Q96 -11 73 12 Q50 35 50 67 Q50 99 73 122 Q96 145 128 145 Q160 145 183 122 Q206 99 206 67 Z " />
<glyph glyph-name="semicolon" unicode="&#x3b;" horiz-adv-x="278" d="M228 478 Q228 446 205 423 Q182 400 150 400 Q118 400 95 423 Q72 446 72 478 Q72 510 95 533 Q118 556 150 556 Q182 556 205 533 Q228 510 228 478 Z M217 86 L75 -165 L0 -128 L99 130 L217 86 Z " />
<glyph glyph-name="question" unicode="&#x3f;" horiz-adv-x="486" d="M436 594 Q436 556 420 520 Q404 484 352 422 Q294 353 276 310 Q258 267 258 219 L157 219 Q156 279 175 331 Q194 383 254 456 Q295 506 307 531.5 Q319 557 319 583 Q319 626 291 650 Q263 674 215 674 Q171 674 125.5 657 Q80 640 50 612 L50 723 Q84 748 130.5 761.5 Q177 775 227 775 Q322 775 379 726.5 Q436 678 436 594 Z M291 68 Q291 36 268 13 Q245 -10 213 -10 Q181 -10 158 13 Q135 36 135 68 Q135 100 158 123 Q181 146 213 146 Q245 146 268 123 Q291 100 291 68 Z " />
<glyph glyph-name="questiondown" unicode="&#xbf;" horiz-adv-x="486" d="M195 473 Q195 505 218 528 Q241 551 273 551 Q305 551 328 528 Q351 505 351 473 Q351 441 328 418 Q305 395 273 395 Q241 395 218 418 Q195 441 195 473 Z M50 -53 Q50 -15 66 21 Q82 57 134 119 Q192 188 210 231 Q228 274 228 322 L329 322 Q330 262 311 210 Q292 158 232 85 Q191 35 179 9.5 Q167 -16 167 -42 Q167 -85 195 -109 Q223 -133 271 -133 Q315 -133 360.5 -116 Q406 -99 436 -71 L436 -182 Q402 -207 355.5 -220.5 Q309 -234 259 -234 Q164 -234 107 -185.5 Q50 -137 50 -53 Z " />
<glyph glyph-name="exclam" unicode="&#x21;" horiz-adv-x="256" d="M75 439 Q71 558 69.5 626.5 Q68 695 68 763 L188 763 Q188 700 187 636 Q186 572 182 461 Q179 362 178 313 Q177 264 177 219 L80 219 Q80 259 79 304 Q78 349 75 439 Z M206 68 Q206 36 183 13 Q160 -10 128 -10 Q96 -10 73 13 Q50 36 50 68 Q50 100 73 123 Q96 146 128 146 Q160 146 183 123 Q206 100 206 68 Z " />
<glyph glyph-name="exclamdown" unicode="&#xa1;" horiz-adv-x="256" d="M50 471 Q50 503 73 526 Q96 549 128 549 Q160 549 183 526 Q206 503 206 471 Q206 439 183 416 Q160 393 128 393 Q96 393 73 416 Q50 439 50 471 Z M181 100 Q185 -19 186.5 -87.5 Q188 -156 188 -224 L68 -224 Q68 -161 69 -97 Q70 -33 74 78 Q77 177 78 226 Q79 275 79 320 L176 320 Q176 280 177 235 Q178 190 181 100 Z " />
<glyph glyph-name="slash" unicode="&#x2f;" horiz-adv-x="461" d="M328 870 L441 870 L132 -78 L20 -78 L328 870 Z " />
<glyph glyph-name="backslash" unicode="&#x5c;" horiz-adv-x="461" d="M20 870 L133 870 L441 -78 L329 -78 L20 870 Z " />
<glyph glyph-name="bar" unicode="&#x7c;" horiz-adv-x="292" d="M90 -224 L90 791 L202 791 L202 -224 L90 -224 Z " />
<glyph glyph-name="brokenbar" unicode="&#xa6;" horiz-adv-x="292" d="M90 390 L90 791 L202 791 L202 390 L90 390 Z M90 -224 L90 181 L202 181 L202 -224 L90 -224 Z " />
<glyph glyph-name="copyright" unicode="&#xa9;" horiz-adv-x="858" d="M429 773 Q594 773 701 662 Q808 551 808 381 Q808 211 701 100.5 Q594 -10 429 -10 Q264 -10 157 100.5 Q50 211 50 381 Q50 551 157 662 Q264 773 429 773 Z M429 676 Q306 676 226 592.5 Q146 509 146 381 Q146 253 226 169.5 Q306 86 429 86 Q552 86 632 169.5 Q712 253 712 381 Q712 509 632 592.5 Q552 676 429 676 Z M544 193 Q526 180 495.5 172.5 Q465 165 427 165 Q337 165 285 224 Q233 283 233 381 Q233 479 285 538.5 Q337 598 427 598 Q465 598 494.5 591.5 Q524 585 542 572 L542 469 Q528 483 497 492 Q466 501 433 501 Q385 501 362 471.5 Q339 442 339 381 Q339 324 363 293 Q387 262 431 262 Q463 262 495 271 Q527 280 544 293 L544 193 Z " />
<glyph glyph-name="soundcopyright" unicode="&#x2117;" horiz-adv-x="858" d="M429 773 Q594 773 701 662 Q808 551 808 381 Q808 211 701 100.5 Q594 -10 429 -10 Q264 -10 157 100.5 Q50 211 50 381 Q50 551 157 662 Q264 773 429 773 Z M429 676 Q306 676 226 592.5 Q146 509 146 381 Q146 253 226 169.5 Q306 86 429 86 Q552 86 632 169.5 Q712 253 712 381 Q712 509 632 592.5 Q552 676 429 676 Z M400 293 L400 158 L302 158 L302 591 L432 591 Q520 591 565.5 554 Q611 517 611 444 Q611 372 562 332.5 Q513 293 425 293 L400 293 Z M432 505 L400 505 L400 379 L425 379 Q469 379 491 395 Q513 411 513 443 Q513 474 492.5 489.5 Q472 505 432 505 Z " />
<glyph glyph-name="registered" unicode="&#xae;" horiz-adv-x="741" d="M370 826 Q510 826 600.5 733 Q691 640 691 496 Q691 353 600.5 260 Q510 167 370 167 Q231 167 140.5 260 Q50 353 50 496 Q50 640 140.5 733 Q231 826 370 826 Z M370 733 Q272 733 207.5 666 Q143 599 143 496 Q143 394 207.5 327 Q272 260 370 260 Q469 260 533.5 327 Q598 394 598 496 Q598 599 533.5 666 Q469 733 370 733 Z M329 448 L329 348 L253 348 L253 652 L357 652 Q423 652 456.5 627 Q490 602 490 553 Q490 526 476.5 505 Q463 484 439 471 L513 348 L419 348 L368 449 Q365 448 360 448 Q355 448 345 448 L329 448 Z M357 584 L329 584 L329 516 L353 516 Q381 516 396.5 525 Q412 534 412 551 Q412 567 397.5 575.5 Q383 584 357 584 Z " />
<glyph glyph-name="trademark" unicode="&#x2122;" horiz-adv-x="1134" d="M280 669 L280 273 L172 273 L172 669 L30 669 L30 763 L423 763 L423 669 L280 669 Z M605 479 L599 273 L493 273 L522 763 L634 763 L748 479 Q759 452 766 431.5 Q773 411 777 395 L779 395 Q786 419 793 439.5 Q800 460 808 480 L922 763 L1034 763 L1064 273 L957 273 L950 479 Q950 507 950.5 534 Q951 561 953 587 L951 587 Q945 561 937 534 Q929 507 919 478 L830 273 L726 273 L636 478 Q626 506 618.5 533.5 Q611 561 605 587 L602 587 Q604 561 605 534 Q606 507 605 479 Z " />
<glyph glyph-name="paragraph" unicode="&#xb6;" horiz-adv-x="698" d="M50 518 Q50 627 118.5 695 Q187 763 294 763 L406 763 L406 -78 L294 -78 L294 273 Q187 273 118.5 341 Q50 409 50 518 Z M496 763 L608 763 L608 -78 L496 -78 L496 763 Z " />
<glyph glyph-name="section" unicode="&#xa7;" horiz-adv-x="606" d="M526 -13 Q526 -117 456 -176 Q386 -235 261 -235 Q211 -235 166 -225 Q121 -215 76 -195 L76 -75 Q117 -102 165.5 -116.5 Q214 -131 265 -131 Q332 -131 368 -104 Q404 -77 404 -26 Q404 10 377 38.5 Q350 67 259 112 Q199 141 171.5 158.5 Q144 176 123 194 Q91 224 75.5 258.5 Q60 293 60 335 Q60 370 74 401.5 Q88 433 117 461 Q99 484 89.5 511 Q80 538 80 569 Q80 663 145 718.5 Q210 774 320 774 Q368 774 411 764.5 Q454 755 489 737 L489 611 Q460 636 414 651.5 Q368 667 322 667 Q262 667 232 644.5 Q202 622 202 577 Q202 544 228 517 Q254 490 342 449 Q403 420 432 402 Q461 384 482 366 Q514 336 530 300 Q546 264 546 221 Q546 186 533 154.5 Q520 123 492 93 Q509 70 517.5 43.5 Q526 17 526 -13 Z M316 208 Q352 192 376 180 Q400 168 417 158 Q425 170 429.5 185 Q434 200 434 218 Q434 253 406 281 Q378 309 285 352 Q255 366 233.5 376.5 Q212 387 196 396 Q184 385 178 369 Q172 353 172 333 Q172 301 198.5 275 Q225 249 316 208 Z " />
<glyph glyph-name="numero" unicode="&#x2116;" horiz-adv-x="1198" d="M1148 619 Q1148 536 1100 486.5 Q1052 437 970 437 Q888 437 840 486.5 Q792 536 792 619 Q792 702 840 751.5 Q888 801 970 801 Q1052 801 1100 751.5 Q1148 702 1148 619 Z M211 453 L211 0 L90 0 L90 763 L211 763 L494 305 Q507 285 521.5 256 Q536 227 553 189 L557 189 Q554 227 552.5 257 Q551 287 551 310 L551 763 L672 763 L672 0 L551 0 L268 458 Q252 484 237.5 513 Q223 542 209 574 L205 574 Q208 542 209.5 512 Q211 482 211 453 Z M1044 619 Q1044 665 1024.5 690.5 Q1005 716 970 716 Q934 716 915 690.5 Q896 665 896 619 Q896 573 915 547.5 Q934 522 970 522 Q1005 522 1024.5 547.5 Q1044 573 1044 619 Z M1138 374 L1138 273 L802 273 L802 374 L1138 374 Z " />
<glyph glyph-name="at" unicode="&#x40;" horiz-adv-x="758" d="M439 -131 Q495 -131 547 -115 Q599 -99 657 -64 L668 -164 Q622 -194 560.5 -210.5 Q499 -227 433 -227 Q259 -227 154.5 -119 Q50 -11 50 161 Q50 337 156 446.5 Q262 556 442 556 Q559 556 613.5 501 Q668 446 668 333 L668 0 L587 0 L570 50 L567 51 Q541 23 499.5 6 Q458 -11 411 -11 Q334 -11 288 35 Q242 81 242 156 Q242 240 303.5 285.5 Q365 331 480 331 L556 331 Q557 334 557 337.5 Q557 341 557 348 Q557 408 529 432 Q501 456 433 456 Q303 456 228 378.5 Q153 301 153 169 Q153 34 229.5 -48.5 Q306 -131 439 -131 Z M492 248 Q422 248 388.5 228.5 Q355 209 355 165 Q355 125 377.5 103.5 Q400 82 442 82 Q481 82 516 99 Q551 116 565 139 L565 248 L492 248 Z " />
<glyph glyph-name="estimated" unicode="&#x212e;" horiz-adv-x="771" d="M667 203 L673 203 L673 126 Q628 61 557 25.5 Q486 -10 402 -10 Q256 -10 158 85 Q60 180 60 326 Q60 466 151.5 558 Q243 650 386 650 Q529 650 620 555 Q711 460 711 316 Q711 305 710.5 295 Q710 285 708 274 L186 274 L186 141 Q224 95 281 70 Q338 45 403 45 Q485 45 558.5 89.5 Q632 134 667 203 Z M577 519 Q540 557 491.5 576.5 Q443 596 386 596 Q325 596 273.5 573.5 Q222 551 186 509 L186 326 L577 326 L577 519 Z " />
<glyph glyph-name="dagger" unicode="&#x2020;" horiz-adv-x="484" d="M444 482 L286 490 L298 0 L186 0 L198 490 L40 482 L40 583 L197 576 L186 763 L298 763 L287 576 L444 583 L444 482 Z " />
<glyph glyph-name="daggerdbl" unicode="&#x2021;" horiz-adv-x="484" d="M444 180 L287 188 L298 0 L186 0 L197 188 L40 180 L40 281 L196 274 L186 392 L195 490 L40 482 L40 583 L197 576 L186 763 L298 763 L287 576 L444 583 L444 482 L289 490 L298 395 L288 274 L444 281 L444 180 Z " />
<glyph glyph-name="asterisk" unicode="&#x2a;" horiz-adv-x="519" d="M325 570 L422 452 L340 392 L260 518 L179 392 L97 452 L194 570 L50 608 L81 705 L217 652 L209 791 L311 791 L303 652 L438 705 L469 608 L325 570 Z " />
<glyph glyph-name="asterism" unicode="&#x2042;" horiz-adv-x="1149" d="M635 570 L732 452 L650 392 L570 518 L489 392 L407 452 L504 570 L360 608 L391 705 L527 652 L519 791 L621 791 L613 652 L748 705 L779 608 L635 570 Z M325 70 L422 -48 L340 -108 L260 18 L179 -108 L97 -48 L194 70 L50 108 L81 205 L217 152 L209 291 L311 291 L303 152 L438 205 L469 108 L325 70 Z M955 70 L1052 -48 L970 -108 L890 18 L809 -108 L727 -48 L824 70 L680 108 L711 205 L847 152 L839 291 L941 291 L933 152 L1068 205 L1099 108 L955 70 Z " />
<glyph glyph-name="degree" unicode="&#xb0;" horiz-adv-x="482" d="M50 583 Q50 668 103 721 Q156 774 241 774 Q325 774 378.5 720.5 Q432 667 432 583 Q432 499 378.5 445.5 Q325 392 241 392 Q156 392 103 445 Q50 498 50 583 Z M330 583 Q330 624 305.5 649 Q281 674 241 674 Q201 674 176.5 649 Q152 624 152 583 Q152 543 176.5 518 Q201 493 241 493 Q281 493 305.5 518 Q330 543 330 583 Z " />
<glyph glyph-name="largecircle" unicode="&#x25ef;" horiz-adv-x="482" d="M50 273 Q50 358 103 411 Q156 464 241 464 Q325 464 378.5 410.5 Q432 357 432 273 Q432 189 378.5 135.5 Q325 82 241 82 Q156 82 103 135 Q50 188 50 273 Z M330 273 Q330 314 305.5 339 Q281 364 241 364 Q201 364 176.5 339 Q152 314 152 273 Q152 233 176.5 208 Q201 183 241 183 Q281 183 305.5 208 Q330 233 330 273 Z " />
<glyph glyph-name="zero.slashLP" unicode="&#xe130;" horiz-adv-x="691" d="M621 381 Q621 189 551 89 Q481 -11 345 -11 Q209 -11 139.5 88.5 Q70 188 70 381 Q70 574 139.5 674 Q209 774 345 774 Q481 774 551 673.5 Q621 573 621 381 Z M188 381 Q188 335 191.5 296 Q195 257 203 227 L433 639 Q415 654 393 661.5 Q371 669 345 669 Q265 669 226.5 599.5 Q188 530 188 381 Z M503 381 Q503 425 499.5 463 Q496 501 489 531 L260 121 Q277 108 298.5 101 Q320 94 345 94 Q425 94 464 163.5 Q503 233 503 381 Z " />
<glyph glyph-name="zero.LP" unicode="&#xe12b;" horiz-adv-x="691" d="M621 381 Q621 189 551 89 Q481 -11 345 -11 Q209 -11 139.5 88.5 Q70 188 70 381 Q70 574 139.5 674 Q209 774 345 774 Q481 774 551 673.5 Q621 573 621 381 Z M503 381 Q503 529 464 599 Q425 669 345 669 Q265 669 226.5 599.5 Q188 530 188 381 Q188 233 226.5 163.5 Q265 94 345 94 Q425 94 464 163.5 Q503 233 503 381 Z " />
<glyph glyph-name="one.LP" unicode="&#xe0f0;" horiz-adv-x="537" d="M492 103 L492 0 L69 0 L69 103 L223 103 L223 564 L60 564 L60 654 Q81 654 99 656.5 Q117 659 133 663 Q152 669 167.5 677.5 Q183 686 194 698 Q209 714 216 730 Q223 746 223 763 L338 763 L338 103 L492 103 Z " />
<glyph glyph-name="two.LP" unicode="&#xe11a;" horiz-adv-x="581" d="M511 103 L511 0 L60 0 L60 123 Q143 202 184 242.5 Q225 283 254 315 Q322 389 352.5 445 Q383 501 383 549 Q383 608 349 640 Q315 672 254 672 Q207 672 157 652 Q107 632 71 600 L71 713 Q112 742 163.5 758.5 Q215 775 266 775 Q378 775 439 716.5 Q500 658 500 549 Q500 464 437.5 371 Q375 278 194 106 L197 103 L511 103 Z " />
<glyph glyph-name="three.LP" unicode="&#xe113;" horiz-adv-x="569" d="M244 -11 Q220 -11 197.5 -8.5 Q175 -6 154 -2 Q126 4 105 12 Q84 20 70 30 L70 144 Q85 132 106 122.5 Q127 113 154 105 Q176 99 199.5 95.5 Q223 92 247 92 Q316 92 359 127 Q402 162 402 219 Q402 281 355.5 311.5 Q309 342 211 342 L137 342 L137 443 L211 443 Q291 443 341 475.5 Q391 508 391 567 Q391 618 356.5 644.5 Q322 671 257 671 Q234 671 211.5 668 Q189 665 166 658 Q141 651 120.5 642 Q100 633 84 622 L84 733 Q117 752 168.5 763 Q220 774 272 774 Q381 774 444.5 722 Q508 670 508 581 Q508 518 478.5 470.5 Q449 423 395 400 L395 398 Q454 379 486.5 332 Q519 285 519 216 Q519 112 443 50.5 Q367 -11 244 -11 Z " />
<glyph glyph-name="four.LP" unicode="&#xe0ca;" horiz-adv-x="651" d="M378 0 L378 179 L50 179 L50 275 L357 763 L493 763 L493 275 L581 275 L581 179 L493 179 L493 0 L378 0 Z M172 275 L378 275 L378 633 L375 633 Q371 622 364 608 Q357 594 311 517 L169 278 L172 275 Z " />
<glyph glyph-name="five.LP" unicode="&#xe0bf;" horiz-adv-x="601" d="M258 -11 Q233 -11 210 -9 Q187 -7 166 -2 Q136 4 115 12 Q94 20 80 30 L80 143 Q95 131 117 121.5 Q139 112 167 104 Q190 98 213.5 95 Q237 92 262 92 Q332 92 373 129.5 Q414 167 414 230 Q414 284 383.5 316.5 Q353 349 292 360 Q266 365 233.5 366 Q201 367 95 360 L95 764 L491 764 L491 661 L210 661 L210 461 Q364 474 447.5 415 Q531 356 531 236 Q531 128 456.5 58.5 Q382 -11 258 -11 Z " />
<glyph glyph-name="six.LP" unicode="&#xe108;" horiz-adv-x="643" d="M578 243 Q578 133 508.5 61 Q439 -11 328 -11 Q202 -11 136 83.5 Q70 178 70 356 Q70 557 150.5 665.5 Q231 774 382 774 Q420 774 460.5 766 Q501 758 541 743 L541 629 Q496 650 458 660.5 Q420 671 386 671 Q288 671 236.5 609 Q185 547 185 429 Q220 454 260 466.5 Q300 479 342 479 Q451 479 514.5 415 Q578 351 578 243 Z M461 234 Q461 306 423.5 344.5 Q386 383 317 383 Q277 383 242.5 370.5 Q208 358 185 336 Q185 213 221.5 150 Q258 87 330 87 Q392 87 426.5 126.5 Q461 166 461 234 Z " />
<glyph glyph-name="seven.LP" unicode="&#xe102;" horiz-adv-x="534" d="M494 651 L204 0 L85 0 L381 657 L378 660 L30 660 L30 763 L494 763 L494 651 Z " />
<glyph glyph-name="eight.LP" unicode="&#xe0af;" horiz-adv-x="674" d="M604 209 Q604 114 527 51.5 Q450 -11 338 -11 Q217 -11 143.5 47 Q70 105 70 201 Q70 262 106 315 Q142 368 207 405 Q155 432 126.5 474.5 Q98 517 98 568 Q98 657 166.5 715.5 Q235 774 339 774 Q442 774 506.5 720 Q571 666 571 582 Q571 527 541 481 Q511 435 461 410 Q534 373 569 323.5 Q604 274 604 209 Z M454 565 Q454 616 421.5 647 Q389 678 333 678 Q281 678 248 648 Q215 618 215 573 Q215 531 252.5 500 Q290 469 369 446 Q408 465 431 496.5 Q454 528 454 565 Z M487 210 Q487 258 437 297 Q387 336 292 360 Q245 340 216 301.5 Q187 263 187 217 Q187 157 226.5 121 Q266 85 333 85 Q404 85 445.5 118.5 Q487 152 487 210 Z " />
<glyph glyph-name="nine.LP" unicode="&#xe0e4;" horiz-adv-x="643" d="M65 520 Q65 630 134.5 702 Q204 774 315 774 Q441 774 507 679.5 Q573 585 573 407 Q573 206 492.5 97.5 Q412 -11 261 -11 Q223 -11 182.5 -3 Q142 5 102 20 L102 134 Q147 113 185 102.5 Q223 92 257 92 Q355 92 406.5 154 Q458 216 458 334 Q423 309 383 296.5 Q343 284 301 284 Q192 284 128.5 348 Q65 412 65 520 Z M182 529 Q182 457 219.5 418.5 Q257 380 326 380 Q366 380 400.5 392.5 Q435 405 458 427 Q458 550 421.5 613 Q385 676 313 676 Q251 676 216.5 636.5 Q182 597 182 529 Z " />
<glyph glyph-name="dollar.LP" unicode="&#xe0a8;" horiz-adv-x="570" d="M510 208 Q510 128 465.5 74 Q421 20 341 0 L341 -78 L229 -78 L229 -11 Q184 -9 142.5 1 Q101 11 60 29 L60 149 Q101 122 149 107.5 Q197 93 246 93 Q313 93 350.5 120 Q388 147 388 195 Q388 232 362.5 262.5 Q337 293 250 340 Q193 371 166.5 389.5 Q140 408 121 428 Q92 457 78 492.5 Q64 528 64 570 Q64 646 108 697.5 Q152 749 229 766 L229 870 L341 870 L341 773 Q377 770 410.5 761 Q444 752 473 737 L473 611 Q444 637 397.5 652 Q351 667 302 667 Q246 667 216 644.5 Q186 622 186 581 Q186 546 210.5 517.5 Q235 489 319 445 Q378 414 405.5 395 Q433 376 452 356 Q482 325 496 288.5 Q510 252 510 208 Z " />
<glyph glyph-name="cent.LP" unicode="&#xe09b;" horiz-adv-x="494" d="M444 136 Q425 124 398 115 Q371 106 341 102 L341 0 L229 0 L229 107 Q145 128 97.5 200.5 Q50 273 50 382 Q50 491 97.5 564 Q145 637 229 658 L229 763 L341 763 L341 663 Q371 659 397.5 651 Q424 643 441 632 L441 524 Q423 542 384.5 553.5 Q346 565 306 565 Q233 565 198 521 Q163 477 163 387 Q163 293 198 246.5 Q233 200 304 200 Q341 200 381.5 212 Q422 224 444 241 L444 136 Z " />
<glyph glyph-name="sterling.LP" unicode="&#xe10e;" horiz-adv-x="634" d="M574 101 L574 0 L70 0 L70 101 L148 101 Q181 144 190 194 Q199 244 186 309 Q185 314 183 322.5 Q181 331 177 342 L80 342 L80 443 L150 443 Q142 476 136 508.5 Q130 541 130 564 Q130 661 192.5 717 Q255 773 366 773 Q419 773 473 759 Q527 745 560 723 L560 602 Q534 629 484 649 Q434 669 385 669 Q313 669 278.5 643 Q244 617 244 563 Q244 549 251.5 515.5 Q259 482 268 443 L538 443 L538 342 L292 342 Q294 332 295.5 323 Q297 314 298 306 Q307 241 300 190 Q293 139 269 101 L574 101 Z " />
<glyph glyph-name="yen.LP" unicode="&#xe126;" horiz-adv-x="645" d="M573 155 L383 155 L383 0 L263 0 L263 155 L69 155 L69 256 L263 256 L263 345 L69 345 L69 446 L203 446 L10 763 L146 763 L300 502 Q306 492 311.5 479.5 Q317 467 322 451 L325 451 Q331 466 336.5 479 Q342 492 348 502 L499 763 L635 763 L443 446 L573 446 L573 345 L383 345 L383 256 L573 256 L573 155 Z " />
<glyph glyph-name="Euro.LP" unicode="&#xe023;" horiz-adv-x="679" d="M629 45 Q590 20 534 4.5 Q478 -11 423 -11 Q310 -11 230 57 Q150 125 118 239 L40 239 L40 340 L101 340 Q101 350 100.5 360.5 Q100 371 100 381 Q100 393 100.5 405 Q101 417 102 429 L40 429 L40 530 L121 530 Q154 641 236 707.5 Q318 774 432 774 Q486 774 539 760 Q592 746 624 722 L624 605 Q582 634 535 649.5 Q488 665 443 665 Q374 665 323.5 629.5 Q273 594 247 530 L544 530 L544 429 L223 429 Q222 418 221.5 406 Q221 394 221 382 Q221 371 221.5 360.5 Q222 350 223 340 L544 340 L544 239 L244 239 Q269 173 319 136 Q369 99 437 99 Q484 99 536.5 116 Q589 133 629 162 L629 45 Z " />
<glyph glyph-name="florin.LP" unicode="&#xe0c6;" horiz-adv-x="378" d="M204 8 Q194 -121 131.5 -178 Q69 -235 -56 -235 L-70 -235 L-70 -134 Q15 -134 49.5 -103 Q84 -72 89 -2 L113 347 L19 347 L19 442 L119 442 L125 528 Q133 645 185.5 707.5 Q238 770 330 770 Q347 770 366 767 Q385 764 398 759 L398 649 Q387 656 369 661 Q351 666 334 666 Q289 666 267 634 Q245 602 240 530 L234 442 L358 442 L358 347 L227 347 L204 8 Z " />
<glyph glyph-name="numbersign.LP" unicode="&#xe0ea;" horiz-adv-x="786" d="M366 0 L425 210 L267 210 L208 0 L96 0 L155 210 L60 210 L60 311 L183 311 L221 444 L132 444 L132 545 L249 545 L310 763 L422 763 L361 545 L519 545 L580 763 L692 763 L631 545 L726 545 L726 444 L603 444 L565 311 L654 311 L654 210 L537 210 L478 0 L366 0 Z M295 311 L453 311 L491 444 L333 444 L295 311 Z " />
<glyph glyph-name="zero.slashLT" unicode="&#xe131;" horiz-adv-x="661" d="M606 381 Q606 189 536 89 Q466 -11 330 -11 Q194 -11 124.5 88.5 Q55 188 55 381 Q55 574 124.5 674 Q194 774 330 774 Q466 774 536 673.5 Q606 573 606 381 Z M173 381 Q173 335 176.5 296 Q180 257 188 227 L418 639 Q400 654 378 661.5 Q356 669 330 669 Q250 669 211.5 599.5 Q173 530 173 381 Z M488 381 Q488 425 484.5 463 Q481 501 474 531 L245 121 Q262 108 283.5 101 Q305 94 330 94 Q410 94 449 163.5 Q488 233 488 381 Z " />
<glyph glyph-name="zero.LT" unicode="&#xe12c;" horiz-adv-x="661" d="M606 381 Q606 189 536 89 Q466 -11 330 -11 Q194 -11 124.5 88.5 Q55 188 55 381 Q55 574 124.5 674 Q194 774 330 774 Q466 774 536 673.5 Q606 573 606 381 Z M488 381 Q488 529 449 599 Q410 669 330 669 Q250 669 211.5 599.5 Q173 530 173 381 Q173 233 211.5 163.5 Q250 94 330 94 Q410 94 449 163.5 Q488 233 488 381 Z " />
<glyph glyph-name="one.LT" unicode="&#xe0f1;" horiz-adv-x="660" d="M546 103 L546 0 L123 0 L123 103 L277 103 L277 564 L114 564 L114 654 Q135 654 153 656.5 Q171 659 187 663 Q206 669 221.5 677.5 Q237 686 248 698 Q263 714 270 730 Q277 746 277 763 L392 763 L392 103 L546 103 Z " />
<glyph glyph-name="two.LT" unicode="&#xe11b;" horiz-adv-x="661" d="M556 103 L556 0 L105 0 L105 123 Q188 202 229 242.5 Q270 283 299 315 Q367 389 397.5 445 Q428 501 428 549 Q428 608 394 640 Q360 672 299 672 Q252 672 202 652 Q152 632 116 600 L116 713 Q157 742 208.5 758.5 Q260 775 311 775 Q423 775 484 716.5 Q545 658 545 549 Q545 464 482.5 371 Q420 278 239 106 L242 103 L556 103 Z " />
<glyph glyph-name="three.LT" unicode="&#xe114;" horiz-adv-x="661" d="M280 -11 Q256 -11 233.5 -8.5 Q211 -6 190 -2 Q162 4 141 12 Q120 20 106 30 L106 144 Q121 132 142 122.5 Q163 113 190 105 Q212 99 235.5 95.5 Q259 92 283 92 Q352 92 395 127 Q438 162 438 219 Q438 281 391.5 311.5 Q345 342 247 342 L173 342 L173 443 L247 443 Q327 443 377 475.5 Q427 508 427 567 Q427 618 392.5 644.5 Q358 671 293 671 Q270 671 247.5 668 Q225 665 202 658 Q177 651 156.5 642 Q136 633 120 622 L120 733 Q153 752 204.5 763 Q256 774 308 774 Q417 774 480.5 722 Q544 670 544 581 Q544 518 514.5 470.5 Q485 423 431 400 L431 398 Q490 379 522.5 332 Q555 285 555 216 Q555 112 479 50.5 Q403 -11 280 -11 Z " />
<glyph glyph-name="four.LT" unicode="&#xe0cb;" horiz-adv-x="661" d="M393 0 L393 179 L65 179 L65 275 L372 763 L508 763 L508 275 L596 275 L596 179 L508 179 L508 0 L393 0 Z M187 275 L393 275 L393 633 L390 633 Q386 622 379 608 Q372 594 326 517 L184 278 L187 275 Z " />
<glyph glyph-name="five.LT" unicode="&#xe0c0;" horiz-adv-x="661" d="M283 -11 Q258 -11 235 -9 Q212 -7 191 -2 Q161 4 140 12 Q119 20 105 30 L105 143 Q120 131 142 121.5 Q164 112 192 104 Q215 98 238.5 95 Q262 92 287 92 Q357 92 398 129.5 Q439 167 439 230 Q439 284 408.5 316.5 Q378 349 317 360 Q291 365 258.5 366 Q226 367 120 360 L120 764 L516 764 L516 661 L235 661 L235 461 Q389 474 472.5 415 Q556 356 556 236 Q556 128 481.5 58.5 Q407 -11 283 -11 Z " />
<glyph glyph-name="six.LT" unicode="&#xe109;" horiz-adv-x="660" d="M584 243 Q584 133 514.5 61 Q445 -11 334 -11 Q208 -11 142 83.5 Q76 178 76 356 Q76 557 156.5 665.5 Q237 774 388 774 Q426 774 466.5 766 Q507 758 547 743 L547 629 Q502 650 464 660.5 Q426 671 392 671 Q294 671 242.5 609 Q191 547 191 429 Q226 454 266 466.5 Q306 479 348 479 Q457 479 520.5 415 Q584 351 584 243 Z M467 234 Q467 306 429.5 344.5 Q392 383 323 383 Q283 383 248.5 370.5 Q214 358 191 336 Q191 213 227.5 150 Q264 87 336 87 Q398 87 432.5 126.5 Q467 166 467 234 Z " />
<glyph glyph-name="seven.LT" unicode="&#xe103;" horiz-adv-x="660" d="M562 651 L272 0 L153 0 L449 657 L446 660 L98 660 L98 763 L562 763 L562 651 Z " />
<glyph glyph-name="eight.LT" unicode="&#xe0b0;" horiz-adv-x="660" d="M597 209 Q597 114 520 51.5 Q443 -11 331 -11 Q210 -11 136.5 47 Q63 105 63 201 Q63 262 99 315 Q135 368 200 405 Q148 432 119.5 474.5 Q91 517 91 568 Q91 657 159.5 715.5 Q228 774 332 774 Q435 774 499.5 720 Q564 666 564 582 Q564 527 534 481 Q504 435 454 410 Q527 373 562 323.5 Q597 274 597 209 Z M447 565 Q447 616 414.5 647 Q382 678 326 678 Q274 678 241 648 Q208 618 208 573 Q208 531 245.5 500 Q283 469 362 446 Q401 465 424 496.5 Q447 528 447 565 Z M480 210 Q480 258 430 297 Q380 336 285 360 Q238 340 209 301.5 Q180 263 180 217 Q180 157 219.5 121 Q259 85 326 85 Q397 85 438.5 118.5 Q480 152 480 210 Z " />
<glyph glyph-name="nine.LT" unicode="&#xe0e5;" horiz-adv-x="660" d="M76 520 Q76 630 145.5 702 Q215 774 326 774 Q452 774 518 679.5 Q584 585 584 407 Q584 206 503.5 97.5 Q423 -11 272 -11 Q234 -11 193.5 -3 Q153 5 113 20 L113 134 Q158 113 196 102.5 Q234 92 268 92 Q366 92 417.5 154 Q469 216 469 334 Q434 309 394 296.5 Q354 284 312 284 Q203 284 139.5 348 Q76 412 76 520 Z M193 529 Q193 457 230.5 418.5 Q268 380 337 380 Q377 380 411.5 392.5 Q446 405 469 427 Q469 550 432.5 613 Q396 676 324 676 Q262 676 227.5 636.5 Q193 597 193 529 Z " />
<glyph glyph-name="dollar.LT" unicode="&#xe0a9;" horiz-adv-x="660" d="M555 208 Q555 128 510.5 74 Q466 20 386 0 L386 -78 L274 -78 L274 -11 Q229 -9 187.5 1 Q146 11 105 29 L105 149 Q146 122 194 107.5 Q242 93 291 93 Q358 93 395.5 120 Q433 147 433 195 Q433 232 407.5 262.5 Q382 293 295 340 Q238 371 211.5 389.5 Q185 408 166 428 Q137 457 123 492.5 Q109 528 109 570 Q109 646 153 697.5 Q197 749 274 766 L274 870 L386 870 L386 773 Q422 770 455.5 761 Q489 752 518 737 L518 611 Q489 637 442.5 652 Q396 667 347 667 Q291 667 261 644.5 Q231 622 231 581 Q231 546 255.5 517.5 Q280 489 364 445 Q423 414 450.5 395 Q478 376 497 356 Q527 325 541 288.5 Q555 252 555 208 Z " />
<glyph glyph-name="cent.LT" unicode="&#xe09c;" horiz-adv-x="660" d="M527 136 Q508 124 481 115 Q454 106 424 102 L424 0 L312 0 L312 107 Q228 128 180.5 200.5 Q133 273 133 382 Q133 491 180.5 564 Q228 637 312 658 L312 763 L424 763 L424 663 Q454 659 480.5 651 Q507 643 524 632 L524 524 Q506 542 467.5 553.5 Q429 565 389 565 Q316 565 281 521 Q246 477 246 387 Q246 293 281 246.5 Q316 200 387 200 Q424 200 464.5 212 Q505 224 527 241 L527 136 Z " />
<glyph glyph-name="sterling.LT" unicode="&#xe10f;" horiz-adv-x="660" d="M582 101 L582 0 L78 0 L78 101 L156 101 Q189 144 198 194 Q207 244 194 309 Q193 314 191 322.5 Q189 331 185 342 L88 342 L88 443 L158 443 Q150 476 144 508.5 Q138 541 138 564 Q138 661 200.5 717 Q263 773 374 773 Q427 773 481 759 Q535 745 568 723 L568 602 Q542 629 492 649 Q442 669 393 669 Q321 669 286.5 643 Q252 617 252 563 Q252 549 259.5 515.5 Q267 482 276 443 L546 443 L546 342 L300 342 Q302 332 303.5 323 Q305 314 306 306 Q315 241 308 190 Q301 139 277 101 L582 101 Z " />
<glyph glyph-name="yen.LT" unicode="&#xe127;" horiz-adv-x="661" d="M581 155 L391 155 L391 0 L271 0 L271 155 L77 155 L77 256 L271 256 L271 345 L77 345 L77 446 L211 446 L18 763 L154 763 L308 502 Q314 492 319.5 479.5 Q325 467 330 451 L333 451 Q339 466 344.5 479 Q350 492 356 502 L507 763 L643 763 L451 446 L581 446 L581 345 L391 345 L391 256 L581 256 L581 155 Z " />
<glyph glyph-name="Euro.LT" unicode="&#xe024;" horiz-adv-x="661" d="M625 45 Q586 20 530 4.5 Q474 -11 419 -11 Q306 -11 226 57 Q146 125 114 239 L36 239 L36 340 L97 340 Q97 350 96.5 360.5 Q96 371 96 381 Q96 393 96.5 405 Q97 417 98 429 L36 429 L36 530 L117 530 Q150 641 232 707.5 Q314 774 428 774 Q482 774 535 760 Q588 746 620 722 L620 605 Q578 634 531 649.5 Q484 665 439 665 Q370 665 319.5 629.5 Q269 594 243 530 L540 530 L540 429 L219 429 Q218 418 217.5 406 Q217 394 217 382 Q217 371 217.5 360.5 Q218 350 219 340 L540 340 L540 239 L240 239 Q265 173 315 136 Q365 99 433 99 Q480 99 532.5 116 Q585 133 625 162 L625 45 Z " />
<glyph glyph-name="florin.LT" unicode="&#xe0c7;" horiz-adv-x="660" d="M370 8 Q360 -121 297.5 -178 Q235 -235 110 -235 L96 -235 L96 -134 Q181 -134 215.5 -103 Q250 -72 255 -2 L279 347 L185 347 L185 442 L285 442 L291 528 Q299 645 351.5 707.5 Q404 770 496 770 Q513 770 532 767 Q551 764 564 759 L564 649 Q553 656 535 661 Q517 666 500 666 Q455 666 433 634 Q411 602 406 530 L400 442 L524 442 L524 347 L393 347 L370 8 Z " />
<glyph glyph-name="numbersign.LT" unicode="&#xe0eb;" horiz-adv-x="660" d="M303 0 L362 210 L204 210 L145 0 L33 0 L92 210 L-3 210 L-3 311 L120 311 L158 444 L69 444 L69 545 L186 545 L247 763 L359 763 L298 545 L456 545 L517 763 L629 763 L568 545 L663 545 L663 444 L540 444 L502 311 L591 311 L591 210 L474 210 L415 0 L303 0 Z M232 311 L390 311 L428 444 L270 444 L232 311 Z " />
<glyph glyph-name="zero.slashOP" unicode="&#xe132;" horiz-adv-x="632" d="M562 272 Q562 136 498.5 62.5 Q435 -11 315 -11 Q196 -11 133 62.5 Q70 136 70 272 Q70 409 133 482.5 Q196 556 315 556 Q435 556 498.5 482.5 Q562 409 562 272 Z M184 272 Q184 248 186 228 Q188 208 192 190 L375 443 Q362 448 347 451 Q332 454 315 454 Q249 454 216.5 410 Q184 366 184 272 Z M448 272 Q448 297 445.5 318.5 Q443 340 439 358 L254 103 Q267 97 282 94 Q297 91 315 91 Q382 91 415 135.5 Q448 180 448 272 Z " />
<glyph glyph-name="zero.OP" unicode="&#xe12d;" horiz-adv-x="632" d="M562 272 Q562 136 498.5 62.5 Q435 -11 315 -11 Q196 -11 133 62.5 Q70 136 70 272 Q70 409 133 482.5 Q196 556 315 556 Q435 556 498.5 482.5 Q562 409 562 272 Z M448 272 Q448 365 415 409.5 Q382 454 315 454 Q249 454 216.5 410 Q184 366 184 272 Q184 179 216.5 135 Q249 91 315 91 Q382 91 415 135.5 Q448 180 448 272 Z " />
<glyph glyph-name="one.OP" unicode="&#xe0f2;" horiz-adv-x="484" d="M439 103 L439 0 L67 0 L67 103 L197 103 L197 380 L60 380 L60 471 Q76 471 90.5 472.5 Q105 474 118 477 Q134 480 146.5 485.5 Q159 491 169 498 Q183 509 190 520.5 Q197 532 197 545 L309 545 L309 103 L439 103 Z " />
</font>
</svg>
